威酷高清论坛

 找回密码
 立即注册

QQ登录

只需一步,快速开始

查看: 1843|回复: 1

[恐怖] 电锯惊魂8:竖锯 Jigsaw.2017.1080p.WEB-DL.DD5.1.H264-FGT 3.21GB

[复制链接]
  • TA的每日心情
    9
    2015-8-23 17:39
  • 签到天数: 124 天

    [LV.7]常住居民III

    发表于 2018-2-14 16:10:50 | 显示全部楼层 |阅读模式
    ◎译  名 电锯惊魂8:竖锯/电锯惊魂8/夺魂锯:游戏重启(台)/恐惧斗室之狂魔再现(港)/电锯惊魂:遗产
    ◎片  名 Jigsaw
    ◎年  代 2017
    ◎产  地 美国
    ◎类  别 悬疑/惊悚/恐怖
    ◎语  言 英语
    ◎上映日期 2017-10-27(美国)
    ◎IMDb评分  6.1/10 from 16,748 users
    ◎豆瓣评分 7.4/10 from 2,944 users
    ◎片  长 91分钟
    ◎导  演 迈克尔·斯派瑞 Michael Spierig / 彼得·斯派瑞 Peter Spierig
    ◎主  演 马特·帕斯摩尔 Matt Passmore
          托宾·贝尔 Tobin Bell
          考乐姆·吉斯·雷尼 Callum Keith Rennie
          汉娜·艾米莉·安德森 Hannah Emily Anderson
          科勒·班尼特 Clé Bennett
          劳拉·范德沃特 Laura Vandervoort
          保罗·布朗斯坦 Paul Braunstein
          曼德拉·范·皮布尔斯 Mandela Van Peebles
          布列塔尼·艾伦 Brittany Allen
          乔赛亚·布莱克 Josiah Black
          爱德华·拉特尔 Edward Ruttle
          迈克·布瓦韦尔 Michael Boisvert
    7 a6 j6 M* z6 f
    ◎简  介
    9 z. E9 q- J) _$ S6 B0 k7 ^% ~& x; C
      各地再次出现各种杀人案,追查结果都指向了已经在系列第三部中去世的竖锯老怪约翰·克莱默,究竟是本尊回归,还是有党徒在模仿他的手法作案?警方一筹莫展。。。。

    ! @: Z% f' {" Z% e9 b; j
    Video
    , K4 P, j9 N7 u4 {3 wID                                       : 1: S. F, Q' T3 G' ?
    Format                                   : AVC+ p# N0 ?) F' G1 `5 u+ Z8 O& C
    Format/Info                              : Advanced Video Codec, M! Y! F8 ?! U7 a+ c2 i6 V
    Format profile                           : High@L49 ?# ?/ k+ i6 V4 H; s+ U
    Format settings                          : CABAC / 5 Ref Frames4 I7 j1 L8 ?  D( `( f) a; b: Q
    Format settings, CABAC                   : Yes
    ; H2 n6 w0 M2 A: W# m0 H2 kFormat settings, ReFrames                : 5 frames2 [" f- K+ V" i7 E+ X+ M. f- ^6 N$ u
    Codec ID                                 : V_MPEG4/ISO/AVC0 w7 N' s1 O: _; e9 i0 M8 e. i
    Duration                                 : 1 h 32 min9 I# h+ q2 H4 S; g
    Bit rate                                 : 4 593 kb/s- p# ]" w+ q4 q
    Width                                    : 1 920 pixels
    % \- g* C% F! [% x' t' J$ gHeight                                   : 804 pixels
    ; N7 [0 j7 C2 H" H2 jDisplay aspect ratio                     : 2.40:1$ p$ z4 h- w- w6 o; z8 A
    Frame rate mode                          : Constant
    $ z& R% O: F7 c* [. \* P  VFrame rate                               : 23.976 (23976/1000) FPS8 w& z; O  c3 h! b# _& d
    Color space                              : YUV8 |2 \% T( V4 b# ?( V
    Chroma subsampling                       : 4:2:0( L6 ^1 c" ^# V" g4 f
    Bit depth                                : 8 bits/ r" E1 ^  J2 E  S: C
    Scan type                                : Progressive7 J  p+ k% W; C/ X
    Bits/(Pixel*Frame)                       : 0.124
    / ]: q1 h5 ]+ m% g# b1 rStream size                              : 2.96 GiB (92%)
    : w3 T. Z* G9 ^* y4 c4 rTitle                                    : Jigsaw.2017.1080p.WEB-DL.DD5.1.H264-FGT8 m. y$ d8 ^7 q0 W" d! f  }
    Language                                 : English
    $ C( P2 f$ s6 c+ }# gDefault                                  : Yes- m' J" G4 W( f9 a8 @
    Forced                                   : No
    2 g4 C- q) N( X1 ]# b2 WColor range                              : Limited" h& j. C8 M' x9 a9 `% l4 J- X
    Color primaries                          : BT.709. L. B3 Z7 Y8 @  s) u' e8 R1 y4 q: D
    Transfer characteristics                 : BT.709# f' Y# K$ q' P
    Matrix coefficients                      : BT.709
    3 ^5 g5 z; x* N" f7 V- ^1 b
    . ^" c# Y& N: e8 Z4 }4 v( r# pAudio3 L! n, V& X2 K" M
    ID                                       : 2
    8 D& ?: ~8 H/ V4 J; K) c5 kFormat                                   : AC-3
    # c3 k1 q9 r, g# u6 h1 HFormat/Info                              : Audio Coding 3
    4 j9 J/ X" p/ J( |  l2 a4 V+ oCodec ID                                 : A_AC3
    ( ~  s# d% R/ b9 y* @, o* }- [Duration                                 : 1 h 32 min
    2 @$ @) ]: I* Y' r3 }Bit rate mode                            : Constant
    9 o' _2 r7 q4 c- d3 @2 UBit rate                                 : 384 kb/s$ o5 j; f1 d1 Y; `9 a, \
    Channel(s)                               : 6 channels8 m! E- N6 R' R# v" s
    Channel positions                        : Front: L C R, Side: L R, LFE8 ~  R& ]4 p5 g5 Y- I8 T
    Sampling rate                            : 48.0 kHz
    6 g$ l/ n* Y: o+ }3 VFrame rate                               : 31.250 FPS (1536 SPF)+ c6 y7 v4 f0 ^/ K
    Bit depth                                : 16 bits5 H* W& u' i8 f) L  P. b; g: t
    Compression mode                         : Lossy- _; p+ D3 v5 H0 F: k& {) F! o
    Delay relative to video                  : -43 ms
    ' R$ H# M0 Q% O# Q& m' b2 Y' P5 {$ nStream size                              : 253 MiB (8%)9 J* d9 U3 N3 W6 N
    Title                                    : Jigsaw.2017.1080p.WEB-DL.DD5.1.H264-FGT% |3 d! ~/ ]& n9 o+ k  h
    Language                                 : English
    + U, p9 X! ^3 A+ ?Service kind                             : Complete Main) B- t7 B3 b! _! U( |- J2 Z- q8 `" {8 U2 \
    Default                                  : Yes
      M) m" t$ S; rForced                                   : No; N+ \$ |+ P, a( o  B

    + `/ [3 A3 {3 I. T4 LText
    ' e% f' y# a, j% p7 F, PID                                       : 3, B3 g3 U, W( Z6 i, @* u+ Z
    Format                                   : UTF-8& _% _* x0 L+ J" s3 r
    Codec ID                                 : S_TEXT/UTF84 v, P6 ~' z& `" s* N+ ]# \
    Codec ID/Info                            : UTF-8 Plain Text7 P; J2 R" s8 T" T
    Duration                                 : 1 h 24 min
    # u% ?" ~# w: r- H( D0 `Bit rate                                 : 57 b/s
    ( s$ P# W' ^0 _# c# ~; X1 JCount of elements                        : 1193) U, O# f& Y% w3 K$ a
    Stream size                              : 35.1 KiB (0%)4 ~' ]+ ^9 _/ ~3 \
    Language                                 : English
    4 \  K0 `- U  F, W5 w+ K6 a3 oDefault                                  : Yes' B/ U+ c! n$ O+ t
    Forced                                   : No
    8 ]- P! H2 W0 A! F+ E
    1 @; D/ H! ?5 z) gMenu
    ! V+ J/ [% @" z# Y) z! P! A  `00:00:00.000                             : en:Chapter 1
    % h7 c. s" O& }2 d9 S0 U9 u00:08:54.993                             : en:Chapter 2
    9 V% S) J: H- |3 Y* d00:17:40.268                             : en:Chapter 3+ e) F: ]0 n2 B9 ]  F
    00:29:18.299                             : en:Chapter 40 C  [& Z+ ]# L; [
    00:38:39.526                             : en:Chapter 5( }. X: p, o) W3 i& c
    00:48:29.157                             : en:Chapter 6" t, K$ ^' {/ z: F
    00:58:18.746                             : en:Chapter 7, D6 m  x" w3 B
    01:09:32.461                             : en:Chapter 84 a. p$ d1 h1 |0 E( O  B
    01:18:29.706                             : en:Chapter 9, _+ O8 L6 y- y1 C/ p! k
    01:25:12.108                             : en:Chapter 10
    ' K0 m3 H" W1 u

    ! ^7 ~6 G$ {: ^  l' ~8 Y
    % W; v+ n6 n% e, z# i
    # o; o0 S) {- S/ A9 G' G
    8 q: L9 O7 A( R  q0 h9 H6 A% I

    . E2 e6 j8 X  K1 ]2 X2 u

    - d% {0 O- c9 e& y) w" t) o. E2 t: {# L0 P: g$ Z

    本帖子中包含更多资源

    您需要 登录 才可以下载或查看,没有帐号?立即注册

    x
    回复

    使用道具 举报

  • TA的每日心情
    1
    2018-3-29 14:05
  • 签到天数: 14 天

    [LV.3]偶尔看看II

    发表于 2018-3-4 20:21:11 | 显示全部楼层
    thank you for your share
    回复 支持 反对

    使用道具 举报

    您需要登录后才可以回帖 登录 | 立即注册

    本版积分规则

    QQ|广告友链合作联系QQ1820944494|小黑屋|威酷高清影视论坛

    GMT+8, 2018-9-24 02:08 , Processed in 0.015578 second(s), 11 queries , Gzip On, Redis On.

    Powered by Discuz! X3.4

    © 2001-2017 Comsenz Inc.

    快速回复 返回顶部 返回列表