威酷高清论坛

 找回密码
 立即注册

QQ登录

只需一步,快速开始

查看: 1775|回复: 1

[恐怖] 电锯惊魂8:竖锯 Jigsaw.2017.1080p.WEB-DL.DD5.1.H264-FGT 3.21GB

[复制链接]
  • TA的每日心情
    9
    2015-8-23 17:39
  • 签到天数: 124 天

    [LV.7]常住居民III

    发表于 2018-2-14 16:10:50 | 显示全部楼层 |阅读模式
    ◎译  名 电锯惊魂8:竖锯/电锯惊魂8/夺魂锯:游戏重启(台)/恐惧斗室之狂魔再现(港)/电锯惊魂:遗产
    ◎片  名 Jigsaw
    ◎年  代 2017
    ◎产  地 美国
    ◎类  别 悬疑/惊悚/恐怖
    ◎语  言 英语
    ◎上映日期 2017-10-27(美国)
    ◎IMDb评分  6.1/10 from 16,748 users
    ◎豆瓣评分 7.4/10 from 2,944 users
    ◎片  长 91分钟
    ◎导  演 迈克尔·斯派瑞 Michael Spierig / 彼得·斯派瑞 Peter Spierig
    ◎主  演 马特·帕斯摩尔 Matt Passmore
          托宾·贝尔 Tobin Bell
          考乐姆·吉斯·雷尼 Callum Keith Rennie
          汉娜·艾米莉·安德森 Hannah Emily Anderson
          科勒·班尼特 Clé Bennett
          劳拉·范德沃特 Laura Vandervoort
          保罗·布朗斯坦 Paul Braunstein
          曼德拉·范·皮布尔斯 Mandela Van Peebles
          布列塔尼·艾伦 Brittany Allen
          乔赛亚·布莱克 Josiah Black
          爱德华·拉特尔 Edward Ruttle
          迈克·布瓦韦尔 Michael Boisvert

    $ H9 t) s6 b% R6 i4 |( a1 j+ U
    ◎简  介
      }& N6 o) o  K5 `  P
      各地再次出现各种杀人案,追查结果都指向了已经在系列第三部中去世的竖锯老怪约翰·克莱默,究竟是本尊回归,还是有党徒在模仿他的手法作案?警方一筹莫展。。。。
    : |+ J" N" ^1 J+ X- o
    Video
    . Y1 ~3 T. ^+ |# D( Z$ M4 m8 ]- rID                                       : 1
    ; j4 ~- O1 S. }9 I/ }6 d: HFormat                                   : AVC
    7 o6 ~& C' d; u) ~Format/Info                              : Advanced Video Codec
    2 f5 U' p$ p7 W9 G5 X& o2 K; EFormat profile                           : High@L4
    ) m1 Z$ V7 l" }5 VFormat settings                          : CABAC / 5 Ref Frames
    $ f  P. R: Z, @  eFormat settings, CABAC                   : Yes. F' _6 f$ r- C$ C
    Format settings, ReFrames                : 5 frames- {4 _. O; _) [( i0 f9 N" A+ l
    Codec ID                                 : V_MPEG4/ISO/AVC
    . N1 X% N$ C$ \7 |$ U" N$ [Duration                                 : 1 h 32 min
    + N8 n! ?0 W2 M& J! _5 h1 oBit rate                                 : 4 593 kb/s
    ! W4 c; T$ l1 TWidth                                    : 1 920 pixels+ b7 @4 Y- j; H  J% U
    Height                                   : 804 pixels2 I6 q; D1 j" D6 d2 j# i# A
    Display aspect ratio                     : 2.40:1
    ! G8 Y& S& }. \2 aFrame rate mode                          : Constant$ |2 q$ N8 Y1 _: z) f. s
    Frame rate                               : 23.976 (23976/1000) FPS1 h+ I! h8 o0 C" g& r; m
    Color space                              : YUV
    - X! X) q4 A! C) V1 w# i8 vChroma subsampling                       : 4:2:0# U  H4 U& L2 J% d
    Bit depth                                : 8 bits
    , |6 x1 ]. L9 h/ eScan type                                : Progressive
    * e; W( K# d7 S3 ~* F- g9 rBits/(Pixel*Frame)                       : 0.124
    % ~* x' a/ Z, S, ~! o* F- FStream size                              : 2.96 GiB (92%)
    ; ~- e2 R6 n) y+ xTitle                                    : Jigsaw.2017.1080p.WEB-DL.DD5.1.H264-FGT
    6 P9 x' L( q& b# RLanguage                                 : English
    . Q  }. \& a( O6 @  X9 j' FDefault                                  : Yes; g1 S& [. f) y7 ~1 {+ c! \
    Forced                                   : No
    ) c7 R" O/ x$ G+ R+ B% }% O* z/ ^3 gColor range                              : Limited9 K) @) K4 z, Q* y4 P4 u
    Color primaries                          : BT.709
    0 a$ l; q6 X/ T8 BTransfer characteristics                 : BT.709
    , B8 b$ E% x6 K& [1 D0 r: LMatrix coefficients                      : BT.709) X. D- W' y/ M: \
    % Q5 N8 I, i/ ?$ }1 A$ R
    Audio
    & u, Z% U3 n3 ?$ {+ }5 J4 u) {/ u) JID                                       : 2
    " f( g4 a: ~' R- q6 lFormat                                   : AC-36 H7 |3 H1 D8 l2 H* T( E
    Format/Info                              : Audio Coding 30 B" T7 d' C$ m
    Codec ID                                 : A_AC3
    1 p/ q5 L3 [6 Y# b5 eDuration                                 : 1 h 32 min5 O2 @) }3 X9 ^! [
    Bit rate mode                            : Constant: j3 t2 ^5 m9 o( N: G6 U
    Bit rate                                 : 384 kb/s
    ' c2 F) F3 o' T/ l' ^Channel(s)                               : 6 channels6 ]/ u; w, n0 y. [; y. U
    Channel positions                        : Front: L C R, Side: L R, LFE: M# e9 _8 f. R) O2 w- m
    Sampling rate                            : 48.0 kHz. |1 d- ]( }1 R! n2 K
    Frame rate                               : 31.250 FPS (1536 SPF)
    ) z$ t8 I5 K8 l  o5 rBit depth                                : 16 bits
    # E4 V/ i! s" V5 M5 x0 VCompression mode                         : Lossy/ R1 Z; }9 j. G6 Z- x5 R) k& h& c
    Delay relative to video                  : -43 ms
    ) W* S! m* \& i, U+ R) G/ jStream size                              : 253 MiB (8%)
    : e4 G0 O/ J$ J1 dTitle                                    : Jigsaw.2017.1080p.WEB-DL.DD5.1.H264-FGT3 `/ `  z( _  J" b5 c
    Language                                 : English' G. J& T# s4 C4 r
    Service kind                             : Complete Main
    5 f7 @( S1 P8 P& gDefault                                  : Yes
    & ]/ N. C2 g$ l* r) gForced                                   : No: \; `; f4 N$ h. h- @7 b

    # `% p0 O8 X5 @Text
    0 f1 q( x* b4 }% o; r! g0 gID                                       : 3& ]+ x* x& C+ J1 U2 v( e6 Q5 m
    Format                                   : UTF-8
    & C' w# a3 |0 r2 QCodec ID                                 : S_TEXT/UTF8
    # V; K) a7 A( \2 b. D1 WCodec ID/Info                            : UTF-8 Plain Text
    # o* z# K4 a" c/ f2 t4 r0 o% vDuration                                 : 1 h 24 min
    ; X1 W) M$ M  V" T9 l5 FBit rate                                 : 57 b/s
    & l  L7 W, F) N* Q  A( |Count of elements                        : 11937 Y& ]' s) n) _. Z& l: S
    Stream size                              : 35.1 KiB (0%). F7 ]$ U8 A: N# ]  r
    Language                                 : English
    2 p, S* N/ C# t# @7 y0 `Default                                  : Yes
    % d5 H, E- q& A. S8 DForced                                   : No" C; A0 M1 F7 _8 j' c  [7 `- ~3 l: I
    0 V% e* {4 h8 r8 ^  p
    Menu6 w% A0 Z" N* L) X3 X! ^0 H
    00:00:00.000                             : en:Chapter 1& u% J0 d6 O( i( ?/ M4 W
    00:08:54.993                             : en:Chapter 2* b: h6 y$ U+ Z/ g7 c6 E5 n0 _+ @
    00:17:40.268                             : en:Chapter 3/ F- j2 @) j0 ?9 e$ H7 h
    00:29:18.299                             : en:Chapter 4# q) r& O; R5 R" e6 B% Y
    00:38:39.526                             : en:Chapter 5
    # w+ c5 ^# {  V00:48:29.157                             : en:Chapter 6
    " }2 J! n6 o4 T' h) K# n00:58:18.746                             : en:Chapter 72 G- |" |- m: A3 p5 e
    01:09:32.461                             : en:Chapter 8' \  i! r1 p3 I! K6 }! r
    01:18:29.706                             : en:Chapter 9
    ' V$ F7 V5 A3 B# y& z5 m: V01:25:12.108                             : en:Chapter 10

    6 T# Y% E* A! X

    9 N* T$ W5 r6 W' u
    : x$ H. ^' w8 O+ y1 w& o2 P  w
    9 t! L0 z+ T4 A& M% `/ U( l
    ) `1 s  Y3 }0 g5 B; f

    * w3 X5 T4 C+ R( k8 M
    ! e, j7 k8 s: _0 p8 e2 t
    / X' @8 a  e9 S0 H' L' R- P3 y

    本帖子中包含更多资源

    您需要 登录 才可以下载或查看,没有帐号?立即注册

    x
    回复

    使用道具 举报

  • TA的每日心情
    1
    2018-3-29 14:05
  • 签到天数: 14 天

    [LV.3]偶尔看看II

    发表于 2018-3-4 20:21:11 | 显示全部楼层
    thank you for your share
    回复 支持 反对

    使用道具 举报

    您需要登录后才可以回帖 登录 | 立即注册

    本版积分规则

    QQ|小黑屋|威酷高清影视论坛

    GMT+8, 2018-6-22 09:50 , Processed in 0.014767 second(s), 11 queries , Gzip On, Redis On.

    Powered by Discuz! X3.4

    © 2001-2017 Comsenz Inc.

    快速回复 返回顶部 返回列表