威酷高清论坛

 找回密码
 立即注册

QQ登录

只需一步,快速开始

查看: 1879|回复: 1

[恐怖] 电锯惊魂8:竖锯 Jigsaw.2017.1080p.WEB-DL.DD5.1.H264-FGT 3.21GB

[复制链接]
  • TA的每日心情
    9
    2015-8-23 17:39
  • 签到天数: 124 天

    [LV.7]常住居民III

    发表于 2018-2-14 16:10:50 | 显示全部楼层 |阅读模式
    ◎译  名 电锯惊魂8:竖锯/电锯惊魂8/夺魂锯:游戏重启(台)/恐惧斗室之狂魔再现(港)/电锯惊魂:遗产
    ◎片  名 Jigsaw
    ◎年  代 2017
    ◎产  地 美国
    ◎类  别 悬疑/惊悚/恐怖
    ◎语  言 英语
    ◎上映日期 2017-10-27(美国)
    ◎IMDb评分  6.1/10 from 16,748 users
    ◎豆瓣评分 7.4/10 from 2,944 users
    ◎片  长 91分钟
    ◎导  演 迈克尔·斯派瑞 Michael Spierig / 彼得·斯派瑞 Peter Spierig
    ◎主  演 马特·帕斯摩尔 Matt Passmore
          托宾·贝尔 Tobin Bell
          考乐姆·吉斯·雷尼 Callum Keith Rennie
          汉娜·艾米莉·安德森 Hannah Emily Anderson
          科勒·班尼特 Clé Bennett
          劳拉·范德沃特 Laura Vandervoort
          保罗·布朗斯坦 Paul Braunstein
          曼德拉·范·皮布尔斯 Mandela Van Peebles
          布列塔尼·艾伦 Brittany Allen
          乔赛亚·布莱克 Josiah Black
          爱德华·拉特尔 Edward Ruttle
          迈克·布瓦韦尔 Michael Boisvert

    % @* q; I8 ]0 B2 }* }3 i6 W2 `6 w
    ◎简  介

    + S, _. m% |+ s
      各地再次出现各种杀人案,追查结果都指向了已经在系列第三部中去世的竖锯老怪约翰·克莱默,究竟是本尊回归,还是有党徒在模仿他的手法作案?警方一筹莫展。。。。
    6 [. d' K$ V  D# u6 q* j
    Video7 n# n! I( B' A9 V3 {4 G
    ID                                       : 1
    1 _, ]( h' p, x, ^0 OFormat                                   : AVC
    , g* F4 f' Y5 y- B# W" M7 _Format/Info                              : Advanced Video Codec4 \8 T' x' z* x# a: z
    Format profile                           : High@L4$ |: F) ?" j  e- q! \- P* y
    Format settings                          : CABAC / 5 Ref Frames; R: ?5 r! {% i6 }
    Format settings, CABAC                   : Yes5 f' E. j+ U7 p+ o; h2 O
    Format settings, ReFrames                : 5 frames
    / [, o0 X3 a. `9 S5 }! b5 R4 SCodec ID                                 : V_MPEG4/ISO/AVC
    8 {, p5 a* F7 ^& ~) }8 \# HDuration                                 : 1 h 32 min
    5 ~1 U- M/ h7 {4 o- H) o4 z: l- TBit rate                                 : 4 593 kb/s- {9 ?3 v- \1 j; s1 u5 J
    Width                                    : 1 920 pixels
    ' e; e6 _& d" }" K9 U/ m' c4 tHeight                                   : 804 pixels5 q. {3 @0 M' X4 v" T
    Display aspect ratio                     : 2.40:1. Y2 C; h  p0 |9 T7 Y
    Frame rate mode                          : Constant/ r! T; z- Y3 y* {2 {
    Frame rate                               : 23.976 (23976/1000) FPS
    ; @8 C& i# v' r6 p- D+ _& c; DColor space                              : YUV
    4 u# L) m5 V8 g5 U& d- [Chroma subsampling                       : 4:2:0, S" f; A. g% F, r+ U
    Bit depth                                : 8 bits
    % O* f  o, V; |; XScan type                                : Progressive) F+ T3 e/ v7 M7 ^. I) L
    Bits/(Pixel*Frame)                       : 0.124+ D" D5 U" z) E+ i- S* \
    Stream size                              : 2.96 GiB (92%)% R3 E& b( Y- @
    Title                                    : Jigsaw.2017.1080p.WEB-DL.DD5.1.H264-FGT: N, _& D: p7 R& f) {: u! i, Q
    Language                                 : English$ u& G" J2 h2 `- B
    Default                                  : Yes! _3 n6 Y3 W2 R  _, I4 [* F* x" y! U" ^
    Forced                                   : No/ V: {. W, E1 a6 Q/ [, g- v5 a
    Color range                              : Limited
    $ r* L0 g* o1 ?6 o1 f+ ?Color primaries                          : BT.709# T! r" c4 Q0 ?: T  X, E0 c1 P
    Transfer characteristics                 : BT.709
    ( m  H+ ]) Y1 j- F  J* F" aMatrix coefficients                      : BT.709& c0 {4 }" D" S9 ~

    6 q. L% \# v+ [5 lAudio
    $ k; z' J0 A4 |/ e  U* v! s7 aID                                       : 2% L$ _7 M# e6 j# I: d1 D. z+ ^
    Format                                   : AC-3& m8 [! k9 `- W0 o: N
    Format/Info                              : Audio Coding 3
    : U$ G. x9 [, l5 ~Codec ID                                 : A_AC3% v* y9 X! K& _. U
    Duration                                 : 1 h 32 min
    & U& j0 Y. Y1 M# g% V4 E6 ?( {$ G4 Z' K! ABit rate mode                            : Constant1 u  W2 [1 F5 k& b( a
    Bit rate                                 : 384 kb/s) p8 N% B; c( d( q0 z9 T; Q: b
    Channel(s)                               : 6 channels5 B9 n: K+ y4 y. S* K; G7 b
    Channel positions                        : Front: L C R, Side: L R, LFE& Z; g( P) y( d! {$ B$ h* c
    Sampling rate                            : 48.0 kHz3 i  a3 @9 R9 W7 o$ U6 o- {; @/ O5 T2 c
    Frame rate                               : 31.250 FPS (1536 SPF)
    9 `# t! J2 o6 I8 _+ ^4 \% QBit depth                                : 16 bits2 ]$ t# X6 }5 K
    Compression mode                         : Lossy" R" Y0 q" A& y
    Delay relative to video                  : -43 ms- d( y/ H; Q% y; g
    Stream size                              : 253 MiB (8%)
    0 {3 Q$ w+ C. C/ v3 ^6 l# h5 v+ S& }Title                                    : Jigsaw.2017.1080p.WEB-DL.DD5.1.H264-FGT% p5 x- j4 ~8 X* w1 \% K, P  h8 ~2 X
    Language                                 : English
    4 B% f- I0 Q1 X% Z# WService kind                             : Complete Main
    1 |% N9 F/ z* n! RDefault                                  : Yes
    9 c( r1 _2 i% d$ V* [" S) L; x4 oForced                                   : No
    ! z& @1 |# ]' \2 O
    , R" \3 Q9 ^4 i2 F0 VText2 o1 {! |0 g  q% O# T9 J
    ID                                       : 3
    6 K8 W7 @; X- p1 M, iFormat                                   : UTF-8
    8 \5 f4 F9 E8 O/ i0 x, tCodec ID                                 : S_TEXT/UTF80 n3 {% L1 ^  v" o
    Codec ID/Info                            : UTF-8 Plain Text$ b+ y/ y/ L- V' N+ O: s
    Duration                                 : 1 h 24 min4 n. G% E" f2 v* f
    Bit rate                                 : 57 b/s
    . g- f; D" r& n5 y7 v( MCount of elements                        : 1193
    ) d1 B' }. ~: \5 TStream size                              : 35.1 KiB (0%)
    9 F/ j) X' K! [Language                                 : English
    5 s; j: n. b) R8 S# v; @0 a0 FDefault                                  : Yes
    ' B6 h* p  H! G$ L- [* mForced                                   : No
    5 @  J' F0 ~7 j2 j3 S+ l% n4 e
    & n8 o7 F3 C( L1 }  d2 q2 _" ]  hMenu
    1 m! I2 {7 L  I! ]0 ?/ F00:00:00.000                             : en:Chapter 1
    , T. m& i6 d6 o2 [00:08:54.993                             : en:Chapter 26 u$ Q  [1 P7 M% }. S
    00:17:40.268                             : en:Chapter 3
    " |* ~0 z+ w0 t/ W) M# z00:29:18.299                             : en:Chapter 4! M+ x* T' V+ F) u' M& o
    00:38:39.526                             : en:Chapter 5
    ( s& g5 y- K" H! u- G* A# B00:48:29.157                             : en:Chapter 6$ q* d0 \$ h6 Y$ V4 \2 f% v
    00:58:18.746                             : en:Chapter 7
    & Y5 n  B, e3 Z. d01:09:32.461                             : en:Chapter 8
    : M1 l2 G3 ?! b  b4 k6 b% s01:18:29.706                             : en:Chapter 9" v4 @' Z% m9 J* q1 _# \5 k+ i/ J5 P
    01:25:12.108                             : en:Chapter 10

    5 W4 `  U- y. _* ^) A% V2 M  p& z

    1 v+ Q& u* U* z9 K! [5 |$ g
    . I+ U/ Q+ X8 V- a- j$ s: [7 l

    8 z/ `' a8 g6 ^# Z$ r
    " I! y- X* b  r: P2 n2 E% {  @$ m7 V
    # q) G0 T/ L+ ]
    " P( a! q& v$ f6 a! {* D5 o) @

    本帖子中包含更多资源

    您需要 登录 才可以下载或查看,没有帐号?立即注册

    x
    回复

    使用道具 举报

  • TA的每日心情
    1
    2018-3-29 14:05
  • 签到天数: 14 天

    [LV.3]偶尔看看II

    发表于 2018-3-4 20:21:11 | 显示全部楼层
    thank you for your share
    回复 支持 反对

    使用道具 举报

    您需要登录后才可以回帖 登录 | 立即注册

    本版积分规则

    QQ|广告友链合作联系QQ1820944494|小黑屋|威酷高清影视论坛

    GMT+8, 2018-12-11 19:34 , Processed in 0.017683 second(s), 11 queries , Gzip On, Redis On.

    Powered by Discuz! X3.4

    © 2001-2017 Comsenz Inc.

    快速回复 返回顶部 返回列表