威酷高清论坛

 找回密码
 立即注册

QQ登录

只需一步,快速开始

查看: 1907|回复: 1

[恐怖] 魂飞破胆 Camp.Blood.7.It.Kills.2017.1080p.AMZN.WEBRip.DD2.0.x264-QOQ 3.8GB

[复制链接]
  • TA的每日心情
    9
    2015-8-23 17:39
  • 签到天数: 124 天

    [LV.7]常住居民III

    发表于 2018-2-14 16:14:38 | 显示全部楼层 |阅读模式

      ?6 [% L! U6 H. _' [& q5 h- ^; X8 n5 Q  G
    ◎译  名 魂飞破胆 7
    ◎片  名 It Kills
    ◎年  代 2017
    ◎产  地 美国
    ◎类  别 动作/惊悚/恐怖
    ◎语  言 英语
    ◎上映日期 2017(美国)
    ◎IMDb评分  3.3/10 from 34 users
    ◎片  长 69分钟
    ◎导  演 Mark Polonia
    ◎主  演 Greta Volkova

    7 Y4 P6 b) M) M2 r" m
    ◎简  介

    ' v' S* c6 t, [: q0 J0 H
      A group of college kids on Fall break find themselves in a bad situation when they become stranded at the infamous Camp Blood.

    . f% c* I$ K, V7 h! }3 o( S
    Video  U% {# v8 l% Y) C8 Q: ~
    ID                                       : 15 i, i: ?% {/ D6 E
    Format                                   : AVC
    3 X0 O9 T9 j; }Format/Info                              : Advanced Video Codec& r9 M+ L( H& Q7 t- L- N* J) Y5 `& l
    Format profile                           : High@L4
    0 A# u$ ~9 t+ D+ \9 b1 PFormat settings                          : CABAC / 4 Ref Frames
    $ d! _! K6 y' D$ F" X! AFormat settings, CABAC                   : Yes' r3 c2 i+ _2 q) ~% \
    Format settings, ReFrames                : 4 frames+ N! ^8 k1 ]- i: m3 J2 C1 T  v) P
    Codec ID                                 : V_MPEG4/ISO/AVC/ d5 C: j0 l3 U* D. v2 F
    Duration                                 : 1 h 2 min
    * Y( u+ {+ `5 F+ T3 qBit rate mode                            : Variable
    9 f6 Q" v8 Q4 g1 s# Z3 uBit rate                                 : 8 484 kb/s: L" E$ Y6 W$ j5 h7 {2 W! I, V  D& P0 R
    Maximum bit rate                         : 15.0 Mb/s2 J" w/ w/ l4 D/ j
    Width                                    : 1 920 pixels' ~  m+ g& N# z) X
    Height                                   : 1 080 pixels
    3 C' U9 X6 D5 m, p2 DDisplay aspect ratio                     : 16:94 w1 d' [( Y+ V* w
    Frame rate mode                          : Constant( a; D# v& c# U
    Frame rate                               : 29.970 (30000/1001) FPS6 W8 K$ w5 u5 `
    Color space                              : YUV8 ^7 v$ y5 D$ k0 Q& t8 [
    Chroma subsampling                       : 4:2:0- G* I. x: U1 b  E' l) Q
    Bit depth                                : 8 bits! [$ I, B- w0 o2 a' ]6 \- |* q
    Scan type                                : Progressive
    . ?- r$ l7 h- s+ G3 GBits/(Pixel*Frame)                       : 0.1378 h. G! m1 B1 L! A5 |) `5 s
    Stream size                              : 3.72 GiB (97%)
    % y) [5 T; x0 M' t. N6 L* gDefault                                  : Yes' x( d5 i8 d! A% P* z" k5 f
    Forced                                   : No
    0 |, D5 B* r& X9 A! cColor range                              : Limited
    / f' j$ |4 n3 \+ RColor primaries                          : BT.709
    ; y4 \# d9 D# f" u+ H1 x2 A# ?Transfer characteristics                 : BT.7091 ]9 {2 f1 d4 {; A0 X7 d! v- ?
    Matrix coefficients                      : BT.709
    & h- v5 K* i4 O( M' w2 k. o% ~  b
    , Z- [0 B) |7 N- fAudio
    7 ?# g5 V: P( s( N' v4 G! N: V) e, lID                                       : 2: F2 a6 M8 \( m4 g; ^
    Format                                   : E-AC-3
    5 F+ o$ }8 Y- sFormat/Info                              : Enhanced Audio Coding 3; y. z6 S8 x' l+ C7 O; y4 t; o" |
    Codec ID                                 : A_EAC3
    5 l3 {6 O  M' U% X& M- NDuration                                 : 1 h 2 min# L2 V! Z* ^5 z  i( u
    Bit rate mode                            : Constant6 A  O. B6 p6 f- G0 c2 ]
    Bit rate                                 : 224 kb/s+ X1 N  z1 c. {& X. V4 N
    Channel(s)                               : 2 channels
      w5 U: x9 y0 O& B% O3 q: |4 MChannel positions                        : Front: L R! W$ o+ a' ]9 @5 U
    Sampling rate                            : 48.0 kHz7 u6 r" p3 S# K& C( E
    Frame rate                               : 187.500 FPS (256 SPF)
    / c% `3 o; l, g7 w5 zCompression mode                         : Lossy( w& M7 v  r; g- R
    Stream size                              : 101 MiB (3%)
    ) V$ w7 }0 n  s. u& N& U0 V( rLanguage                                 : English2 t: x; _& x4 H0 q/ t; o
    Service kind                             : Complete Main
    ) D' L4 [6 {" F. H: v3 i# |) FDefault                                  : Yes
    % ]8 j% Q9 R/ TForced                                   : No
    6 {, h  P. B+ `: E5 a  i: d/ e8 }- e( \$ y; m( p* ]
    Text #1$ ?5 U0 F8 O; ~% t" |
    ID                                       : 3! C7 f& I( `& B# e
    Format                                   : UTF-8
    5 u& g/ K3 l$ Q9 v* x2 P$ mCodec ID                                 : S_TEXT/UTF8
    1 Q, U& I6 m! w7 J% a7 aCodec ID/Info                            : UTF-8 Plain Text/ A6 F0 l/ q. N
    Duration                                 : 59 min 17 s& d7 ^2 m  v# `7 K+ C8 ~
    Bit rate                                 : 45 b/s
    & r( F$ ]3 H. Z! fCount of elements                        : 617
      K3 j  g: N7 w) G7 j' W; W3 rStream size                              : 19.9 KiB (0%); s3 _' B/ B" `2 Q
    Language                                 : English
    4 S1 j  j; I' f0 R! [7 |Default                                  : No
      ?, R( M3 {( s7 r; `0 vForced                                   : No
    ! o' Y0 Q, w9 e& x
    9 l, W+ c, e$ bText #2' x. K! V9 _# B, r5 c0 a/ s, {: o, ~2 K
    ID                                       : 4, a# O7 E2 F9 a4 X& L4 F  b7 S
    Format                                   : UTF-8" u$ h  Z) {! f, A! J
    Codec ID                                 : S_TEXT/UTF8
    : h7 h3 R# M0 VCodec ID/Info                            : UTF-8 Plain Text
    & P' Q# B0 P: ~$ d& tDuration                                 : 1 h 1 min
    $ Z) p! _2 `/ B" H0 \( }Bit rate                                 : 51 b/s
    & u% p. F; j6 ]4 t* j0 q8 PCount of elements                        : 783
    9 D/ N  m  r/ |6 U7 v- V% wStream size                              : 23.1 KiB (0%)& |$ |8 n8 c7 f+ n* w' Z7 p
    Title                                    : SDH. t5 s; Q' d/ Y0 G
    Language                                 : English) m8 z4 u/ M( l1 H6 B
    Default                                  : No* g4 S( P5 E" u& u* u4 t2 X
    Forced                                   : No
    9 _( W, X- P3 _) @3 P% h
      e/ J/ K9 S" L4 H3 R

    3 r$ b6 y  J8 G2 W2 j9 }+ P8 b

    & Q/ t2 c& f% E0 K! J) o% C% e  B
    5 `& b8 f3 E# _, |" h2 ~8 H! q: b
    1 k; V, ]2 C  U9 H
    6 H6 {# k/ K2 ^7 \- B

    ; |# C( U& N$ I. i2 e' S0 B, @& b

    本帖子中包含更多资源

    您需要 登录 才可以下载或查看,没有帐号?立即注册

    x
    回复

    使用道具 举报

  • TA的每日心情
    1
    2018-8-26 21:35
  • 签到天数: 366 天

    [LV.9]以坛为家II

    发表于 2018-3-25 15:12:51 | 显示全部楼层
    恐怖片!真的很恐怖!
    回复 支持 反对

    使用道具 举报

    您需要登录后才可以回帖 登录 | 立即注册

    本版积分规则

    QQ|广告友链合作联系QQ1820944494|小黑屋|威酷高清影视论坛

    GMT+8, 2018-9-24 01:36 , Processed in 0.019002 second(s), 12 queries , Gzip On, Redis On.

    Powered by Discuz! X3.4

    © 2001-2017 Comsenz Inc.

    快速回复 返回顶部 返回列表