威酷高清论坛

 找回密码
 立即注册

QQ登录

只需一步,快速开始

查看: 1836|回复: 1

[恐怖] 魂飞破胆 Camp.Blood.7.It.Kills.2017.1080p.AMZN.WEBRip.DD2.0.x264-QOQ 3.8GB

[复制链接]
  • TA的每日心情
    9
    2015-8-23 17:39
  • 签到天数: 124 天

    [LV.7]常住居民III

    发表于 2018-2-14 16:14:38 | 显示全部楼层 |阅读模式

    " V6 K3 [: T, O5 d% x) r3 ^$ |; C! z- x8 f. `) L% u  V
    ◎译  名 魂飞破胆 7
    ◎片  名 It Kills
    ◎年  代 2017
    ◎产  地 美国
    ◎类  别 动作/惊悚/恐怖
    ◎语  言 英语
    ◎上映日期 2017(美国)
    ◎IMDb评分  3.3/10 from 34 users
    ◎片  长 69分钟
    ◎导  演 Mark Polonia
    ◎主  演 Greta Volkova

    2 N9 i& P3 @7 U5 T* Y
    ◎简  介
    : K# I+ r8 R/ M5 f6 |+ R
      A group of college kids on Fall break find themselves in a bad situation when they become stranded at the infamous Camp Blood.
    # ]8 q# R. X& W9 t7 E
    Video
    - B, X) }* z" U" qID                                       : 1
    4 c- Z2 ]: r2 q2 z1 DFormat                                   : AVC7 E4 }( P' W1 {
    Format/Info                              : Advanced Video Codec
    0 H, Y2 v9 L5 ?9 }- t7 V9 EFormat profile                           : High@L4
    ) S0 `' `, L: lFormat settings                          : CABAC / 4 Ref Frames# H& q) I% ]3 ], m1 O
    Format settings, CABAC                   : Yes
    0 h/ f5 ?+ P+ [, R! V  jFormat settings, ReFrames                : 4 frames
    / i! L! w" V6 V0 x+ w: L% @Codec ID                                 : V_MPEG4/ISO/AVC; Z3 s  R  c& Z% ~
    Duration                                 : 1 h 2 min  ~; d$ O2 l- F4 w
    Bit rate mode                            : Variable$ }8 T2 B$ n9 E- u  m$ c( `! e
    Bit rate                                 : 8 484 kb/s
    ) P% B% @3 L3 O0 S3 _Maximum bit rate                         : 15.0 Mb/s
    7 C$ u( C6 G, I0 Q& b- mWidth                                    : 1 920 pixels2 B  U# M- G' J: j2 e- o5 m2 S- O
    Height                                   : 1 080 pixels% ]; Y6 b5 r+ U' v2 h) ^/ w
    Display aspect ratio                     : 16:9
    * |& r6 c& m9 m3 m; g- WFrame rate mode                          : Constant8 q+ r% p6 M- F. e- Z# r
    Frame rate                               : 29.970 (30000/1001) FPS( p* p) M4 Q) W, @# H
    Color space                              : YUV
    * G7 I+ b( d4 w; C8 dChroma subsampling                       : 4:2:0
    3 W  M- L  v9 q' n* nBit depth                                : 8 bits( \) t* E% n; [5 A5 n! A/ o  c
    Scan type                                : Progressive
    3 V2 ]  H' ~6 b! A- mBits/(Pixel*Frame)                       : 0.137
    ( q5 A; F- Y* j& C, MStream size                              : 3.72 GiB (97%)4 @- t* _. D4 J3 @
    Default                                  : Yes7 v* [% e* j, F0 o* _& i
    Forced                                   : No$ G  p3 X+ o% y. `$ m
    Color range                              : Limited+ h1 q. Y! b5 p: a8 K
    Color primaries                          : BT.709. Q8 [/ G$ ^! R7 A$ ^
    Transfer characteristics                 : BT.709* P) B0 N- p" p: H- r& L  V) T2 v
    Matrix coefficients                      : BT.7098 b! `- F5 q' y1 R

    ) B6 S8 p! `; l& L, dAudio* r4 L6 M- c$ A
    ID                                       : 2' @. l5 G6 q! h& }2 U5 S( R8 B# J: v
    Format                                   : E-AC-3
    / u- R9 ]- k7 |! }" vFormat/Info                              : Enhanced Audio Coding 32 A" e/ T6 F4 E2 C6 F9 O( O
    Codec ID                                 : A_EAC3
    2 C& O+ r( F  k2 a9 `0 yDuration                                 : 1 h 2 min
    ) O! U- \7 V$ p. vBit rate mode                            : Constant
    + E7 @4 Z1 V4 v: \* c( UBit rate                                 : 224 kb/s6 I3 r" b3 n% {
    Channel(s)                               : 2 channels4 V, q$ U; S/ l: Q
    Channel positions                        : Front: L R) T" ]9 G9 F' K" ^& p! ~; {% t* ^
    Sampling rate                            : 48.0 kHz5 v% p* E4 b0 G/ b2 _
    Frame rate                               : 187.500 FPS (256 SPF); R& }% e0 v; K; ^
    Compression mode                         : Lossy. c9 D, E3 Q8 \4 b6 S" n9 D: H. W
    Stream size                              : 101 MiB (3%)
    / _/ T/ p; T; W1 j  D1 ELanguage                                 : English
    * X7 A3 h4 S& ^- x- pService kind                             : Complete Main% [) q* i: W# p. h  d
    Default                                  : Yes! V' Y, r9 f7 T$ O7 Y
    Forced                                   : No
    " A  R1 E5 f) n
    ' R1 a- f3 m: VText #1
    $ T! d0 f0 u. w9 b* E, d6 RID                                       : 3- B0 _* g5 C$ V9 P& D
    Format                                   : UTF-8
    # b3 D& Q9 G. h* l5 NCodec ID                                 : S_TEXT/UTF8
    0 T3 v, |! H. A' l  _  w$ W6 Q7 mCodec ID/Info                            : UTF-8 Plain Text
    ( j3 K& [; {! P7 XDuration                                 : 59 min 17 s
    2 r: F  e! N/ {2 v, u" qBit rate                                 : 45 b/s/ s3 B5 H0 o, ?% R- E% X& o& j
    Count of elements                        : 6177 V' o5 @/ D$ Z! l$ \; ?$ x; {
    Stream size                              : 19.9 KiB (0%)
    3 g, V# T& Q8 S3 ]5 zLanguage                                 : English2 S; }, D# f0 P: b
    Default                                  : No8 ]2 j0 g- p; i5 U
    Forced                                   : No& P+ j" b3 X9 D4 A$ _* a0 A
    9 V( A) h" }' c" N+ C
    Text #2* T3 ~: A. q7 C
    ID                                       : 4
    ' B8 g8 O! I, eFormat                                   : UTF-87 ~$ _% }; j- _! s5 N& j
    Codec ID                                 : S_TEXT/UTF8
    3 X: r  B* @8 L$ R4 u5 i) Z2 `Codec ID/Info                            : UTF-8 Plain Text" F8 p! l# t* t0 t
    Duration                                 : 1 h 1 min
    ) q0 ~: Y: p& g8 c9 EBit rate                                 : 51 b/s" U8 A/ S- O' l0 U5 D
    Count of elements                        : 783
    " u8 a5 Z& l, oStream size                              : 23.1 KiB (0%); r5 S" Y7 Y" `: d
    Title                                    : SDH% d" k2 y! k; ^$ |7 Y3 M0 L
    Language                                 : English
    4 N: H/ Y1 e2 P* b( ADefault                                  : No
    ' j( q- r( |/ Z) i$ VForced                                   : No

    . o0 F& T5 X% L

    6 B( R; v1 l) n" p3 }$ G5 i! Z4 h: E6 A  l7 X$ `" [# F
    5 [( L3 ?! g- I5 ]

    : J0 j( C5 ?& m5 P: i, F( \
    ! |+ S# G- H" g

    ! \9 M3 H1 F6 ]; t; A
    ) {, ?0 w9 r" o: X; Z$ U

    本帖子中包含更多资源

    您需要 登录 才可以下载或查看,没有帐号?立即注册

    x
    回复

    使用道具 举报

  • TA的每日心情
    1
    2018-5-10 18:04
  • 签到天数: 359 天

    [LV.8]以坛为家I

    发表于 2018-3-25 15:12:51 | 显示全部楼层
    恐怖片!真的很恐怖!
    回复 支持 反对

    使用道具 举报

    您需要登录后才可以回帖 登录 | 立即注册

    本版积分规则

    QQ|小黑屋|威酷高清影视论坛

    GMT+8, 2018-6-22 09:54 , Processed in 0.013625 second(s), 11 queries , Gzip On, Redis On.

    Powered by Discuz! X3.4

    © 2001-2017 Comsenz Inc.

    快速回复 返回顶部 返回列表