威酷高清论坛

 找回密码
 立即注册

QQ登录

只需一步,快速开始

查看: 1942|回复: 1

[恐怖] 魂飞破胆 Camp.Blood.7.It.Kills.2017.1080p.AMZN.WEBRip.DD2.0.x264-QOQ 3.8GB

[复制链接]
  • TA的每日心情
    9
    2015-8-23 17:39
  • 签到天数: 124 天

    [LV.7]常住居民III

    发表于 2018-2-14 16:14:38 | 显示全部楼层 |阅读模式
    5 H2 ~, \2 W: r% @! r

    1 `; n: X% ~! w" {8 i3 Y
    ◎译  名 魂飞破胆 7
    ◎片  名 It Kills
    ◎年  代 2017
    ◎产  地 美国
    ◎类  别 动作/惊悚/恐怖
    ◎语  言 英语
    ◎上映日期 2017(美国)
    ◎IMDb评分  3.3/10 from 34 users
    ◎片  长 69分钟
    ◎导  演 Mark Polonia
    ◎主  演 Greta Volkova

    5 P& u( p$ S) t/ b
    ◎简  介
    ) c9 n0 T+ t) V$ }" e8 z4 ~1 K
      A group of college kids on Fall break find themselves in a bad situation when they become stranded at the infamous Camp Blood.
    - m8 j6 h. s5 a- B# L, C
    Video, v) g( |) X5 M3 E
    ID                                       : 1
    % W  C8 c1 D5 S$ X+ PFormat                                   : AVC5 N6 `8 o2 S# `7 Q# Y
    Format/Info                              : Advanced Video Codec
    ' r! s& f0 e' C6 a* Y) @Format profile                           : High@L4
    & M! D: ]7 c0 c2 Z- V/ G* U) GFormat settings                          : CABAC / 4 Ref Frames- O$ _9 P9 t% x+ t: X* E; v+ G3 U
    Format settings, CABAC                   : Yes
    7 M) i3 g- W* ]2 L: N, GFormat settings, ReFrames                : 4 frames
    7 ?' `, L; }( s) K; T2 k0 DCodec ID                                 : V_MPEG4/ISO/AVC
    / l3 m0 N* n( F+ Z* hDuration                                 : 1 h 2 min
    + r6 h% s) x  \0 R6 k- {3 v8 SBit rate mode                            : Variable
    0 R, i. Q: v& J# ~$ g9 n8 hBit rate                                 : 8 484 kb/s# [0 f; f8 H( I$ Y) A
    Maximum bit rate                         : 15.0 Mb/s
    ' b- r/ K) D3 }: d& ?Width                                    : 1 920 pixels( x# O- c' I7 N' m5 t; Q7 b
    Height                                   : 1 080 pixels
    ; G5 H+ d1 s3 A' X: _4 q) ~2 N/ \Display aspect ratio                     : 16:9
    : X& p! h# m1 D7 ?9 RFrame rate mode                          : Constant
    3 @8 A& J; I/ e; CFrame rate                               : 29.970 (30000/1001) FPS
    ; P& j  C& q6 Z, D! L  S1 S" CColor space                              : YUV. o2 A9 B" Z' `5 C6 R# k/ L: ^
    Chroma subsampling                       : 4:2:0- |; _2 v. T. K) Z: D* O
    Bit depth                                : 8 bits
    ' @) Z* s& R' TScan type                                : Progressive
    8 J; @; p6 N' e+ P$ Y7 KBits/(Pixel*Frame)                       : 0.137
    0 O, X4 Z* X) ~( D2 QStream size                              : 3.72 GiB (97%)% u2 t' h0 p* e7 n" Q# u3 b& [6 Q
    Default                                  : Yes" q4 s0 U. R0 r* U% t/ _
    Forced                                   : No
    % T1 e5 B+ o5 E8 [' rColor range                              : Limited6 b, T$ H% c( B" u$ L; l
    Color primaries                          : BT.709
    ' r2 n9 r2 @2 i" M7 w4 MTransfer characteristics                 : BT.709* W7 P0 N0 Q" z6 c0 c
    Matrix coefficients                      : BT.7099 b& o6 s' z. w8 z' j# j

    % n. F! s& }8 A9 S; @0 y- b& yAudio
    4 g; N0 }& R" Y% \* e8 VID                                       : 25 N; g8 G+ W! N/ X( `
    Format                                   : E-AC-3( a6 K" O9 |8 ^( O/ n
    Format/Info                              : Enhanced Audio Coding 3/ }; |8 f, R+ d4 J" d
    Codec ID                                 : A_EAC3+ z; m( Y& s. M8 A7 z/ I
    Duration                                 : 1 h 2 min1 B# X; n1 _  s. P2 k* R0 `2 C
    Bit rate mode                            : Constant
    / ?' V$ I( P" s& ~Bit rate                                 : 224 kb/s$ w9 J5 }3 {9 `1 k2 o5 S) N" H7 L, l
    Channel(s)                               : 2 channels
    " [' }- n/ s+ s" H8 ?Channel positions                        : Front: L R4 e% i) R. N# b7 H5 [
    Sampling rate                            : 48.0 kHz
    5 p0 m0 z! p" j7 UFrame rate                               : 187.500 FPS (256 SPF)0 L) W7 h6 q/ q" g- s( v* K, q
    Compression mode                         : Lossy: }; Z+ j$ `1 e9 Q( W: J! d
    Stream size                              : 101 MiB (3%)' @& u: M% p# \( Q# Z
    Language                                 : English
    6 H  ]$ H; B% j0 V9 X4 |  [* qService kind                             : Complete Main
      N2 m: O4 S4 |, eDefault                                  : Yes  e. c; b6 v7 b$ O
    Forced                                   : No
    6 L! M3 Y; `) ?3 e9 ^1 x: O( G' M9 l( F3 y1 y  H
    Text #1
    - v" O3 _6 Q9 f$ a. dID                                       : 32 M; Y' F; H1 D2 R- A' l; n( m: T
    Format                                   : UTF-83 U0 A$ S/ q0 x0 L. E
    Codec ID                                 : S_TEXT/UTF81 Z3 n% k3 K4 x' ]
    Codec ID/Info                            : UTF-8 Plain Text7 i2 ~: B  b; W! @7 \. _, l
    Duration                                 : 59 min 17 s& d! G8 E$ G% J
    Bit rate                                 : 45 b/s
    4 Z4 v% N% E$ _. t! O  uCount of elements                        : 617
    5 ]( s) M  A/ {  E/ P5 @: O2 OStream size                              : 19.9 KiB (0%)
    1 P- i9 @4 L( C% i& QLanguage                                 : English
    / N9 |; L9 G& G6 I4 h4 dDefault                                  : No
    * H/ e) W( [' v8 u) X' I' \" I( ]Forced                                   : No7 [4 L; x& C. L3 f5 c
    6 |9 F9 c$ v  h6 l' S6 J& u
    Text #2
    : _( W$ P' B: t4 J, KID                                       : 4$ Q! ]7 K0 u; `# g7 h  M4 N, M+ n
    Format                                   : UTF-8
    6 t& {* Z% I" S& @  ^1 l% a; jCodec ID                                 : S_TEXT/UTF8
    ' ?) e$ n0 F3 y' R# f0 F% ~Codec ID/Info                            : UTF-8 Plain Text5 D$ O4 }, C! v. z9 w
    Duration                                 : 1 h 1 min# L1 e5 X4 _7 W' n" S( h( I
    Bit rate                                 : 51 b/s
    9 a" g* }, a+ D( ^Count of elements                        : 783; Q  G  K4 B0 B5 q, q0 Z
    Stream size                              : 23.1 KiB (0%)
    . V+ j: @" b" mTitle                                    : SDH# ?5 Z+ J9 |7 W* G  {
    Language                                 : English) S) M+ D' ~$ T: }. _3 c* w# }
    Default                                  : No
    - c0 ?' ?7 v8 v' H/ hForced                                   : No
    ! m9 v& W% n2 U% A  X
    7 {2 x! \$ M. @  o+ L; d4 }4 h
    9 ?  V/ F( e1 v0 l4 s6 W1 n! I

    . v% R% }: l% `4 k: a: _) z
      ~, R! I  I5 ?$ n! X6 u6 m
    7 N) P8 V7 j9 f* w! ^2 M3 `" t
    ) w3 U* [  o# c3 e# w, d

    : ]- h3 ~, l  c; x

    本帖子中包含更多资源

    您需要 登录 才可以下载或查看,没有帐号?立即注册

    x
    回复

    使用道具 举报

  • TA的每日心情
    1
    前天 20:25
  • 签到天数: 375 天

    [LV.9]以坛为家II

    发表于 2018-3-25 15:12:51 | 显示全部楼层
    恐怖片!真的很恐怖!
    回复 支持 反对

    使用道具 举报

    您需要登录后才可以回帖 登录 | 立即注册

    本版积分规则

    QQ|广告友链合作联系QQ1820944494|小黑屋|威酷高清影视论坛

    GMT+8, 2018-12-11 18:59 , Processed in 0.021675 second(s), 12 queries , Gzip On, Redis On.

    Powered by Discuz! X3.4

    © 2001-2017 Comsenz Inc.

    快速回复 返回顶部 返回列表