威酷高清论坛

 找回密码
 立即注册

QQ登录

只需一步,快速开始

查看: 2038|回复: 1

[恐怖] 死产儿/夭折 Still.Born.2017.1080p.WEB-DL.DD5.1.H264-FGT 3GB

[复制链接]
  • TA的每日心情
    9
    2015-8-23 17:39
  • 签到天数: 124 天

    [LV.7]常住居民III

    发表于 2018-2-14 16:15:49 | 显示全部楼层 |阅读模式
    ◎译  名 死产儿/夭折
    ◎片  名 Still/Born
    ◎年  代 2017
    ◎产  地 加拿大
    ◎类  别 惊悚/恐怖
    ◎语  言 英语
    ◎上映日期 2017-04-29(The Overlook Film Festival)
    ◎片  长 97分钟
    ◎导  演 布兰登·克里斯坦森
    ◎主  演 克里斯蒂·柏克 Christie Burke
          杰西·莫斯 Jesse Moss
          Rebecca Olson
          迈克尔·艾恩塞德 Michael Ironside
          Jenn Griffin
          希拉·麦卡锡 Sheila McCarthy
          肖恩·罗格森 Sean Rogerson
          Dylan Playfair
          Grace Christensen
    " \3 w* I( A- C! g# L% _
    ◎简  介

    * l/ {8 Q/ ?9 {: H% S
      影片讲述的是一位新妈妈 Mary (克里斯蒂·柏克 饰)保护新生儿 Adam(Grace Christensen 饰)的故事。Mary 生了一对双胞胎,但其中只有 Adam 存活了下来。在照顾 Adam 的过程中她疯狂地认为有某种超自然的实体在不惜任何代价地把 Adam 从她身边带走。

    / v* m( z) e" b6 l- R' A' A: A' r
    Video
    " P, `2 D$ p! L3 h1 i! }: UID                                       : 1
    3 P% f2 z" [% c6 I6 X3 PFormat                                   : AVC
    : X; u& v; l* R4 fFormat/Info                              : Advanced Video Codec
    7 w/ h: \! J" i$ i1 ]Format profile                           : High@L46 b6 b+ K8 i  R  y, K
    Format settings                          : CABAC / 5 Ref Frames
    2 P; \0 I' W( w3 x5 Q) Z8 l/ MFormat settings, CABAC                   : Yes, `' M: ^+ `$ k% ?: g) E* z
    Format settings, ReFrames                : 5 frames7 n! j# u! F, f- c( s( T3 X
    Codec ID                                 : V_MPEG4/ISO/AVC
    + ?% J. ]" V) T. V% I: mDuration                                 : 1 h 26 min/ t. E# l8 b. D3 X+ d/ E
    Bit rate                                 : 4 550 kb/s: T" W3 u! Y0 J; w) }0 n
    Width                                    : 1 916 pixels
    ' e$ @5 b4 [( ^Height                                   : 812 pixels
    2 f) e% A6 M) [9 W7 |( ~  rDisplay aspect ratio                     : 2.35:1
    $ b* l* H  [- z; Y' Z, m6 r3 SFrame rate mode                          : Constant) X" i6 `  R/ i1 v  W& |8 x
    Frame rate                               : 23.976 (23976/1000) FPS4 @" U% c9 `" C! r
    Color space                              : YUV
    ; [  T. ^2 y% @Chroma subsampling                       : 4:2:04 _" r. w5 C3 {# J- l( @
    Bit depth                                : 8 bits: b! w# X% }% `% `" P
    Scan type                                : Progressive& b: r; L' P" G0 R
    Bits/(Pixel*Frame)                       : 0.122
    9 ?$ ~2 \  o: t0 M2 T- N( R$ uStream size                              : 2.76 GiB (92%)
    4 ~, S+ a2 l: h: U& n. uTitle                                    : Still.Born.2017.1080p.WEB-DL.DD5.1.H264-FGT
    ' T# z  a! \# H/ l4 c) N/ \* QLanguage                                 : English
    3 \% D8 f+ Z8 G2 y' \9 e/ iDefault                                  : Yes- u3 B$ R" K% R  w
    Forced                                   : No) s0 b; i' V/ `  H5 `2 X
    Color range                              : Limited0 I1 d1 W' r) N; f2 N! n. D
    Color primaries                          : BT.709
    # y/ b# _; }; h! z7 v7 [8 l3 `) _6 CTransfer characteristics                 : BT.709
    ) o( r. h+ K" X( X/ L1 ~2 w% aMatrix coefficients                      : BT.709
    " N$ J+ k; y8 b  B# K! D' a  y% ?" c& P1 T1 q: H$ o
    Audio
    ) B9 \& S3 ]! S2 y, nID                                       : 2
    / d, [! ~' `+ @8 tFormat                                   : AC-3. j  F; E# `" y, G6 w5 Y5 r
    Format/Info                              : Audio Coding 3
    8 A) r. j8 C& G' ]. @+ p3 a) kCodec ID                                 : A_AC39 S" A  j+ k5 F* e" V1 `
    Duration                                 : 1 h 26 min" ?9 l  X5 r* l$ R3 u; I
    Bit rate mode                            : Constant
    ' T& k1 X5 u( p. PBit rate                                 : 384 kb/s, J: x/ @0 T4 w! u: b1 ~5 B7 V7 @
    Channel(s)                               : 6 channels
      S1 b% G  O: M: c) QChannel positions                        : Front: L C R, Side: L R, LFE% R, v, P9 G) D9 y) y% s& A
    Sampling rate                            : 48.0 kHz
    ; @) l4 P( z; `1 yFrame rate                               : 31.250 FPS (1536 SPF), `; Y" c5 }$ x9 y; E
    Bit depth                                : 16 bits
    % R! m* U& i# zCompression mode                         : Lossy6 J/ C( q; f6 ?- v& C
    Delay relative to video                  : -42 ms
    6 U5 f; V' D6 z. S7 x9 \Stream size                              : 239 MiB (8%)
    & a$ r. G8 d$ L5 X! m! T+ ~/ K: ~$ _Title                                    : Still.Born.2017.1080p.WEB-DL.DD5.1.H264-FGT8 L* ]8 F8 o1 m, g2 j
    Language                                 : English8 \2 k5 w+ |5 M" p0 ?
    Service kind                             : Complete Main* `  N) p, B4 \5 c: p
    Default                                  : Yes% E* }/ T# b3 ]* F
    Forced                                   : No
    ' z7 g3 V/ X5 \0 _* s1 K2 D5 F8 m# |5 @9 x
    Menu
    , H6 _/ ?: m. Z/ f. F1 ~00:00:00.000                             : en:12 l% }3 e) \' g' `- o- F
    00:05:18.000                             : en:2, p0 H+ W$ P( O* ^: c* x, b* F: s
    00:11:10.000                             : en:35 C+ L$ `5 T5 Y
    00:16:24.000                             : en:4
    9 h) p. l, ~5 u8 o/ z) ^$ Q* V& p00:22:14.000                             : en:5
    1 f7 S( M# l# y1 M9 N+ A00:27:44.000                             : en:65 ^3 g# K7 [* s6 Q
    00:33:49.000                             : en:76 O& E  U. W6 Y+ P
    00:40:55.000                             : en:8
    $ H& s3 ~0 e8 j  y# Y00:46:46.000                             : en:9; ~: \2 v* E! Q2 w
    00:53:07.000                             : en:103 H* O5 L; h" \+ a7 K6 F$ s
    00:57:04.000                             : en:11
    2 s6 C4 E6 V3 u/ z) w  d01:03:17.000                             : en:12
    8 |* _# B* Y* X+ w& M01:08:35.000                             : en:130 `/ v1 b6 B' T* r' |4 M
    01:12:25.000                             : en:14, q2 r: d- ]& z* _7 a* D
    01:20:15.000                             : en:15
    6 y/ o+ h* F) z% M! e01:24:22.000                             : en:16' i( N/ [: E) _& g
    ; _3 \; k& Q4 c/ M6 m6 {8 u0 l; P7 v/ p
    ; U  j  V! T; t

    " T) A' [; h! J& e0 ~. d  F

    0 [5 T. D) P. Z+ H. |! V8 R) _9 |/ c. f& u1 u# L
    ; W! Z8 |8 u- ?3 d7 @8 z
    " g9 ^  {) N( W" I
    * s: U: ~5 @2 f0 e9 P0 u. s( o

    本帖子中包含更多资源

    您需要 登录 才可以下载或查看,没有帐号?立即注册

    x
    回复

    使用道具 举报

  • TA的每日心情
    1
    2018-3-29 14:05
  • 签到天数: 14 天

    [LV.3]偶尔看看II

    发表于 2018-3-4 20:20:48 | 显示全部楼层
    thank you for your sare
    回复 支持 反对

    使用道具 举报

    您需要登录后才可以回帖 登录 | 立即注册

    本版积分规则

    QQ|广告友链合作联系QQ1820944494|小黑屋|威酷高清影视论坛

    GMT+8, 2018-12-11 19:00 , Processed in 0.019117 second(s), 12 queries , Gzip On, Redis On.

    Powered by Discuz! X3.4

    © 2001-2017 Comsenz Inc.

    快速回复 返回顶部 返回列表