威酷高清论坛

 找回密码
 立即注册

QQ登录

只需一步,快速开始

查看: 1914|回复: 1

[恐怖] 死产儿/夭折 Still.Born.2017.1080p.WEB-DL.DD5.1.H264-FGT 3GB

[复制链接]
  • TA的每日心情
    9
    2015-8-23 17:39
  • 签到天数: 124 天

    [LV.7]常住居民III

    发表于 2018-2-14 16:15:49 | 显示全部楼层 |阅读模式
    ◎译  名 死产儿/夭折
    ◎片  名 Still/Born
    ◎年  代 2017
    ◎产  地 加拿大
    ◎类  别 惊悚/恐怖
    ◎语  言 英语
    ◎上映日期 2017-04-29(The Overlook Film Festival)
    ◎片  长 97分钟
    ◎导  演 布兰登·克里斯坦森
    ◎主  演 克里斯蒂·柏克 Christie Burke
          杰西·莫斯 Jesse Moss
          Rebecca Olson
          迈克尔·艾恩塞德 Michael Ironside
          Jenn Griffin
          希拉·麦卡锡 Sheila McCarthy
          肖恩·罗格森 Sean Rogerson
          Dylan Playfair
          Grace Christensen

    0 G, v/ u3 \2 p) x5 L
    ◎简  介

    2 @2 v1 r. O% J) b
      影片讲述的是一位新妈妈 Mary (克里斯蒂·柏克 饰)保护新生儿 Adam(Grace Christensen 饰)的故事。Mary 生了一对双胞胎,但其中只有 Adam 存活了下来。在照顾 Adam 的过程中她疯狂地认为有某种超自然的实体在不惜任何代价地把 Adam 从她身边带走。

    9 x6 S6 U7 D$ B& Q  A, V# Q
    Video! p) p2 O: s3 L- i/ W
    ID                                       : 1
    9 k3 ^& }5 M& {1 |8 jFormat                                   : AVC' a4 l1 W; {* h+ ^+ l/ n, A
    Format/Info                              : Advanced Video Codec
    ! P9 l* u) t( x& }- V4 M/ h$ H2 `Format profile                           : High@L4
    2 ^: q3 p2 S( ~; e. l$ wFormat settings                          : CABAC / 5 Ref Frames
    / v/ ~0 E, G* @  q! TFormat settings, CABAC                   : Yes9 i2 w& k$ ]$ F! z6 a5 f7 e
    Format settings, ReFrames                : 5 frames
    ( f* \# {3 U3 d, A8 k4 ?Codec ID                                 : V_MPEG4/ISO/AVC1 Y7 r, ?% X' B
    Duration                                 : 1 h 26 min+ Z& S! I' @* p; x& I2 ?
    Bit rate                                 : 4 550 kb/s+ j8 s0 [  L  J( }( N. r
    Width                                    : 1 916 pixels
    ! e2 I5 |5 b% t5 n' ^7 O1 ~Height                                   : 812 pixels/ B' [6 S" p9 A
    Display aspect ratio                     : 2.35:17 j1 o. V3 v$ \( s' p& E8 N
    Frame rate mode                          : Constant1 d. F4 e7 s8 F2 e
    Frame rate                               : 23.976 (23976/1000) FPS
    ; ]- N* a, r! L$ s% W3 ~Color space                              : YUV+ F0 M7 @) Z( v* ~/ `( l& m0 v$ M) R
    Chroma subsampling                       : 4:2:0; e/ r3 p3 E3 P8 C" ^
    Bit depth                                : 8 bits
    2 ?3 s1 q9 \$ N5 ?Scan type                                : Progressive
    : m$ O8 \: T' P, ]6 \* A2 cBits/(Pixel*Frame)                       : 0.1224 r- ?* G0 x' a3 x" |* x# z& G
    Stream size                              : 2.76 GiB (92%)+ w% R$ u, Z( [# j3 \) ^
    Title                                    : Still.Born.2017.1080p.WEB-DL.DD5.1.H264-FGT
    3 @+ x5 I' j4 _. ~1 }Language                                 : English1 V$ L3 w, C' g* u4 V9 k: x. F+ T/ u$ y
    Default                                  : Yes. B+ x" X, c, g  {/ [2 e
    Forced                                   : No
    % b% I8 U$ y6 BColor range                              : Limited
    5 l$ L& X! G7 b0 C+ AColor primaries                          : BT.7096 S2 P" @' V: s; a! W6 n- t
    Transfer characteristics                 : BT.7096 L! G% y1 H3 c/ D
    Matrix coefficients                      : BT.7091 P: r3 U, Q5 g7 v6 T6 x. _
    9 i+ j) R& e. W4 S  c+ n* g
    Audio
    ( P# l: E9 ^( m; n6 l: EID                                       : 2
    5 i9 Y8 {- ~5 J3 G9 DFormat                                   : AC-3
    . B5 C2 b: v& a# k5 s$ L% b; a3 G/ FFormat/Info                              : Audio Coding 3
    : L) g& s: D  j) c) ^Codec ID                                 : A_AC34 o8 p6 F  y( ]( G! u
    Duration                                 : 1 h 26 min
    $ P5 D0 A- M! k3 L" p- h2 u8 ]" wBit rate mode                            : Constant" v3 i4 K! ^8 i& o! J: J
    Bit rate                                 : 384 kb/s
    + N- p1 P' a9 \& TChannel(s)                               : 6 channels
    5 k6 U  w2 D  r+ NChannel positions                        : Front: L C R, Side: L R, LFE
    + {& C6 I- |+ H1 N: c7 G3 r! J1 sSampling rate                            : 48.0 kHz; ], F( A; a$ `9 K9 E/ W
    Frame rate                               : 31.250 FPS (1536 SPF)
    # _& ^& ]9 R9 i. g0 @- d) \* ~Bit depth                                : 16 bits
    + z7 T( Y: k# w% r+ S- g, QCompression mode                         : Lossy
    / h& Q! |3 g' T# G$ S) D/ [. g" I. iDelay relative to video                  : -42 ms
    ; K/ W/ T. i' c6 a2 f' }6 cStream size                              : 239 MiB (8%)
    + c# L* D  \" D; ^1 {Title                                    : Still.Born.2017.1080p.WEB-DL.DD5.1.H264-FGT
    0 F' }1 {! p6 n6 c. ^+ Y5 mLanguage                                 : English% r$ d: `/ j, g. D- T; w
    Service kind                             : Complete Main
      |% \' Z' P* c/ ^1 L! I' sDefault                                  : Yes  I0 M1 k* f: o0 i1 R8 d( u
    Forced                                   : No
    4 w( J( Q, `$ o
    , y- w7 r  ]1 `8 U, {9 m$ _Menu
    9 w1 _  o7 Q0 t1 t; w8 N00:00:00.000                             : en:1
    ' r9 X, ~! u1 B# m; [; c00:05:18.000                             : en:2
    . Q2 H% Q2 O& \00:11:10.000                             : en:3
    8 b5 v, i$ `& j# S4 T00:16:24.000                             : en:4
    ! A* k: G" F# t9 e00:22:14.000                             : en:5
    , j* a1 y% q& @& Y00:27:44.000                             : en:6
    # Z! Y5 t& O$ D% r3 z$ Z: M. j00:33:49.000                             : en:73 B. {. C0 Z2 O0 k8 w
    00:40:55.000                             : en:8
    " e0 \, W7 X- d* {, r+ k00:46:46.000                             : en:9
    - C2 F. J% u7 r00:53:07.000                             : en:10
    / P2 f5 y6 g, u9 O- Z: D# e00:57:04.000                             : en:11  a( g$ J. s7 u8 b3 _: g
    01:03:17.000                             : en:12
    6 K: ~. G! `: G, }' W01:08:35.000                             : en:13& ?& d/ p4 {; E8 E( l: @# X+ f
    01:12:25.000                             : en:14
    # N- Y3 R, p) \, |01:20:15.000                             : en:15
    9 i- |# N; B# r01:24:22.000                             : en:16
    ) p/ U( b( `" _. R( `( f' D8 c9 D3 e
    9 l  }+ @; e( o
    ; ^8 |! F3 D5 m$ ]3 P" ^4 ?

    5 F. S$ D+ H  i- U" z# j3 Y8 g
    % [3 ]; V' U: M. r
    6 _1 k( J  N# y7 P

    : d, i  N. q: D  C

    " o( b* S6 B. L0 _+ U$ Y* \% Z. _! d, i3 u) Z# [

    本帖子中包含更多资源

    您需要 登录 才可以下载或查看,没有帐号?立即注册

    x
    回复

    使用道具 举报

  • TA的每日心情
    1
    2018-3-29 14:05
  • 签到天数: 14 天

    [LV.3]偶尔看看II

    发表于 2018-3-4 20:20:48 | 显示全部楼层
    thank you for your sare
    回复 支持 反对

    使用道具 举报

    您需要登录后才可以回帖 登录 | 立即注册

    本版积分规则

    QQ|小黑屋|威酷高清影视论坛

    GMT+8, 2018-6-22 09:57 , Processed in 0.013565 second(s), 11 queries , Gzip On, Redis On.

    Powered by Discuz! X3.4

    © 2001-2017 Comsenz Inc.

    快速回复 返回顶部 返回列表