威酷高清论坛

 找回密码
 立即注册

QQ登录

只需一步,快速开始

查看: 2009|回复: 1

[恐怖] 死产儿/夭折 Still.Born.2017.1080p.WEB-DL.DD5.1.H264-FGT 3GB

[复制链接]
  • TA的每日心情
    9
    2015-8-23 17:39
  • 签到天数: 124 天

    [LV.7]常住居民III

    发表于 2018-2-14 16:15:49 | 显示全部楼层 |阅读模式
    ◎译  名 死产儿/夭折
    ◎片  名 Still/Born
    ◎年  代 2017
    ◎产  地 加拿大
    ◎类  别 惊悚/恐怖
    ◎语  言 英语
    ◎上映日期 2017-04-29(The Overlook Film Festival)
    ◎片  长 97分钟
    ◎导  演 布兰登·克里斯坦森
    ◎主  演 克里斯蒂·柏克 Christie Burke
          杰西·莫斯 Jesse Moss
          Rebecca Olson
          迈克尔·艾恩塞德 Michael Ironside
          Jenn Griffin
          希拉·麦卡锡 Sheila McCarthy
          肖恩·罗格森 Sean Rogerson
          Dylan Playfair
          Grace Christensen

    % I" Z* p0 Q2 Y: d  w
    ◎简  介
    " y9 c) m  t2 h6 ^' v0 J6 T) H
      影片讲述的是一位新妈妈 Mary (克里斯蒂·柏克 饰)保护新生儿 Adam(Grace Christensen 饰)的故事。Mary 生了一对双胞胎,但其中只有 Adam 存活了下来。在照顾 Adam 的过程中她疯狂地认为有某种超自然的实体在不惜任何代价地把 Adam 从她身边带走。
    & ~( ^: g% t& E2 O. v& Q
    Video% W! [) m4 W+ ~, X7 E2 G" ^6 S
    ID                                       : 1
      a* o; \4 y4 W* D& _Format                                   : AVC' k, l) L8 z4 G9 T- x5 V
    Format/Info                              : Advanced Video Codec- v* T) z+ _/ x$ W$ d* v
    Format profile                           : High@L4  x5 R  b9 M5 w& V; ~
    Format settings                          : CABAC / 5 Ref Frames
    8 Y) D: i, p, _; O" @! c# ZFormat settings, CABAC                   : Yes% p4 x9 q3 t" {' A* f
    Format settings, ReFrames                : 5 frames9 [- A+ V/ I) _. a4 W2 Q4 Y
    Codec ID                                 : V_MPEG4/ISO/AVC
    $ @- z0 C! d+ y+ l9 }% NDuration                                 : 1 h 26 min" G% ?) m6 e) K! ~4 a
    Bit rate                                 : 4 550 kb/s
    0 C; `1 C) X: j0 ~$ C6 u. EWidth                                    : 1 916 pixels
    9 j' z/ d, x4 ?" \Height                                   : 812 pixels% v4 o9 k$ S* W9 B7 ?
    Display aspect ratio                     : 2.35:1
    ' y5 r9 p0 I  D3 O. NFrame rate mode                          : Constant% [+ ^/ F5 q; M+ R
    Frame rate                               : 23.976 (23976/1000) FPS- O. Y" D% {4 D1 B! |5 n/ q
    Color space                              : YUV
    6 z7 X9 L/ ~5 q" ~' t0 C, [) P) MChroma subsampling                       : 4:2:0
    7 e4 k9 _1 r1 X* DBit depth                                : 8 bits; ^7 e" m4 V: B5 D9 r
    Scan type                                : Progressive
    9 H* t' C9 D6 U6 F3 CBits/(Pixel*Frame)                       : 0.1227 k; x' G1 S+ \8 o$ N
    Stream size                              : 2.76 GiB (92%)
    6 l, q" m+ y' i% j; O. G, \Title                                    : Still.Born.2017.1080p.WEB-DL.DD5.1.H264-FGT0 [6 I$ z# K6 a* ?" Y- w
    Language                                 : English
    2 X: D$ u" s& Z) F! zDefault                                  : Yes* Q) ?7 [* F- n; }; d
    Forced                                   : No7 A6 }9 o& P# [- s! T
    Color range                              : Limited5 e5 K+ X: _8 k2 P; r' x8 m* x) B7 a; |
    Color primaries                          : BT.709' m5 C/ k" \. F! x& h
    Transfer characteristics                 : BT.7091 Z) c" [0 Y0 C
    Matrix coefficients                      : BT.7097 t# W% {" [7 L* Y

    ) ?7 ]7 i/ T, l' Y. v2 FAudio
    0 S, k% g4 n3 T4 SID                                       : 2
    ) v  {: X( e* KFormat                                   : AC-3' V+ ?, s$ W& k
    Format/Info                              : Audio Coding 3
    7 Z: t, r& _! qCodec ID                                 : A_AC3
    & P' z8 Y- t& a* vDuration                                 : 1 h 26 min7 V- c9 |; |+ S9 |
    Bit rate mode                            : Constant
    * P" w9 @6 m) ?8 `! x/ sBit rate                                 : 384 kb/s
    5 v4 Y! e2 T1 U& BChannel(s)                               : 6 channels
    " B/ t% g# l6 q3 GChannel positions                        : Front: L C R, Side: L R, LFE
    ) v4 m  j; R9 m+ p0 s1 |0 nSampling rate                            : 48.0 kHz/ ~# X/ ^7 k% w) C1 b! Z7 P% k
    Frame rate                               : 31.250 FPS (1536 SPF). C0 I" I( h' L$ b/ m( F
    Bit depth                                : 16 bits5 \3 f  H5 M5 [% V# \0 D
    Compression mode                         : Lossy1 j. s$ |) Q. E5 H
    Delay relative to video                  : -42 ms
    * ?) d$ E( r8 T% P1 ZStream size                              : 239 MiB (8%)* F! s; h# i9 u: M
    Title                                    : Still.Born.2017.1080p.WEB-DL.DD5.1.H264-FGT
    ) v5 ~9 u) R7 `9 A8 vLanguage                                 : English
    0 b' P9 l  o& L, bService kind                             : Complete Main
    ! i  o; M4 {4 Z- C: lDefault                                  : Yes, [/ I4 z1 ^% {+ F/ H2 u% d
    Forced                                   : No! d. g+ ]6 y) ]4 v# d
    $ u7 T, e. d$ I
    Menu& Q5 ~4 o. f/ T/ e+ e( x1 g
    00:00:00.000                             : en:15 i) v! F* S7 ]. d9 P
    00:05:18.000                             : en:2
    & _' H2 h4 f" k: e0 A$ T; X00:11:10.000                             : en:36 m4 u' c9 H( u& j- z1 K: p8 ~
    00:16:24.000                             : en:44 j3 J% N( v( u, N- O* N
    00:22:14.000                             : en:5- i: A/ |. [+ J" y1 l$ s4 D
    00:27:44.000                             : en:6
    ) _; {8 C9 }) K/ `: Z0 y00:33:49.000                             : en:73 F, u* f$ n+ Q% l* B& `# N
    00:40:55.000                             : en:8
    / Y# Y5 I; k) s00:46:46.000                             : en:9
    ( F* ?" p" A+ p$ O00:53:07.000                             : en:10" m% @. Z/ ?& T, e+ y
    00:57:04.000                             : en:11
    ) I: O$ O! s" `+ ]6 D01:03:17.000                             : en:12( g( U1 {8 \: g
    01:08:35.000                             : en:130 X9 @$ i4 A* |. {5 H# q7 f, Q
    01:12:25.000                             : en:14. j8 G) k  ]* {
    01:20:15.000                             : en:157 [) `# P3 d+ X
    01:24:22.000                             : en:16
    1 [0 c1 V0 x2 E- {6 z- b# x1 _( S

    ( D" J( `/ e+ @6 A+ h1 }# u
    4 x' L7 ^+ o% h' B1 ]% S1 h
    / T  I- M* e( y" G9 P1 |

    ; F7 m) `% B4 Z5 F1 T& Z; K. P& B

    : F& b9 a( f4 Q; }) Q1 C

    : W0 v; E# G. }! l  k* f: S+ I0 _5 _) v

    本帖子中包含更多资源

    您需要 登录 才可以下载或查看,没有帐号?立即注册

    x
    回复

    使用道具 举报

  • TA的每日心情
    1
    2018-3-29 14:05
  • 签到天数: 14 天

    [LV.3]偶尔看看II

    发表于 2018-3-4 20:20:48 | 显示全部楼层
    thank you for your sare
    回复 支持 反对

    使用道具 举报

    您需要登录后才可以回帖 登录 | 立即注册

    本版积分规则

    QQ|广告友链合作联系QQ1820944494|小黑屋|威酷高清影视论坛

    GMT+8, 2018-9-24 01:51 , Processed in 0.016657 second(s), 11 queries , Gzip On, Redis On.

    Powered by Discuz! X3.4

    © 2001-2017 Comsenz Inc.

    快速回复 返回顶部 返回列表