威酷高清论坛

 找回密码
 立即注册

QQ登录

只需一步,快速开始

查看: 2013|回复: 1

[恐怖] 黑森灵 The.Ritual.2018.iNTERNAL.1080p.WEB.x264-STRiFE 3.35GB

[复制链接]
  • TA的每日心情
    9
    2015-8-23 17:39
  • 签到天数: 124 天

    [LV.7]常住居民III

    发表于 2018-2-14 16:16:49 | 显示全部楼层 |阅读模式
    ◎译  名 黑森灵/黑森灵(台)
    ◎片  名 The Ritual
    ◎年  代 2017
    ◎产  地 英国
    ◎类  别 恐怖
    ◎语  言 英语
    ◎上映日期 2017-10-13(英国)
    ◎IMDb评分  6.3/10 from 1,181 users
    ◎豆瓣评分 5.2/10 from 13 users
    ◎片  长 94分钟
    ◎导  演 大卫·布鲁克纳 David Bruckner
    ◎主  演 拉菲·斯波 Rafe Spall
          罗伯·詹姆斯-克里尔 Rob James-Collier
          山姆·特劳顿 Sam Troughton
          阿舍尔·阿里 Arsher Ali
          Paul Reid
          Kerri McLean
          Maria Erwolter
          Jacob James Beswick
          Francesca Mula

    " @" F; \. P( m" p( e
    ◎简  介

    % @- V7 g; Z) T& T
      故事讲述大学里的四个老朋友徒步穿越斯堪的纳维亚的荒野,然而错误的决定让他们深入北欧神话传说中的神秘黑森林,一个古老邪恶的生物也盯上几个人。

    # q% H/ }  k$ a7 r2 }% `$ d
    ◎获奖情况

    7 }/ ?" w! d9 B* y! f# ^
      第20届英国独立电影奖  (2017)
      最佳视效
    1 v& }) u) t7 A: F! N' f) S
    Video: x0 E' W4 u7 J& ]5 ^6 J6 ?7 i0 I
    ID                                       : 1
    $ E4 ^8 s" D% C% n( OFormat                                   : AVC* ?2 R+ Y  w, x6 P
    Format/Info                              : Advanced Video Codec- R1 Z( \2 Q1 [. G, v( d. ?. U
    Format profile                           : Main@L4
    ' T3 o% O4 W1 X- l6 v6 @: |4 hFormat settings                          : CABAC / 3 Ref Frames
      \: ]( t' D5 y7 g5 G, w7 W# uFormat settings, CABAC                   : Yes' `, c2 l" J6 v8 X; Y0 X
    Format settings, RefFrames               : 3 frames2 c" \; d* D2 {! W( i. Y& L0 E
    Codec ID                                 : V_MPEG4/ISO/AVC# o1 g; b1 p$ [& ~* ]; J  v  d5 o
    Duration                                 : 1 h 34 min
    # T7 G# }: M- E0 U/ ZBit rate mode                            : Variable( A5 h! I# y7 x' g  l
    Bit rate                                 : 4 640 kb/s
    4 b4 i) W0 c5 lMaximum bit rate                         : 6 960 kb/s) @: L- J8 E! `% C, X; S- Y
    Width                                    : 1 920 pixels
    . U' W+ J* Z1 q# v1 l9 O0 D5 zHeight                                   : 1 080 pixels+ D5 F  a1 g+ `& U7 j+ _
    Display aspect ratio                     : 16:9
    ; w, A$ X$ ?; @1 Y0 a, kFrame rate mode                          : Constant& k6 L/ X4 J3 F2 O! m( ~
    Frame rate                               : 23.976 (24000/1001) FPS
    & Z4 Z- k) }; i# X6 R, @  |1 _Color space                              : YUV
    9 W! |) d1 ~% a  r6 D/ X5 wChroma subsampling                       : 4:2:0
    1 s( |5 T& r2 tBit depth                                : 8 bits( ^1 r( `; Y2 M" C% o* H
    Scan type                                : Progressive
    / o, _* z6 S8 DBits/(Pixel*Frame)                       : 0.093
    1 W- W- d4 g, h# ZStream size                              : 3.05 GiB (91%): l7 D$ d6 q& C  p# Z5 h) I
    Writing library                          : x264 core 148 r2714 2daf636
    $ x- T1 P3 {& u0 h4 ]" K/ H% ~. S+ Y9 TEncoding settings                        : cabac=1 / ref=3 / deblock=1:0:0 / analyse=0x1:0x111 / me=umh / subme=10 / psy=1 / psy_rd=1.00:0.00 / mixed_ref=1 / me_range=24 / chroma_me=1 / trellis=2 / 8x8dct=0 / cqm=0 / deadzone=21,11 / fast_pskip=1 / chroma_qp_offset=-2 / threads=8 / lookahead_threads=1 / sliced_threads=0 / nr=0 / decimate=1 / interlaced=0 / bluray_compat=0 / stitchable=1 / constrained_intra=0 / bframes=2 / b_pyramid=0 / b_adapt=2 / b_bias=0 / direct=3 / weightb=1 / open_gop=0 / weightp=2 / keyint=48 / keyint_min=25 / scenecut=0 / intra_refresh=0 / rc_lookahead=48 / rc=2pass / mbtree=1 / bitrate=4640 / ratetol=1.0 / qcomp=0.50 / qpmin=6 / qpmax=51 / qpstep=4 / cplxblur=20.0 / qblur=0.5 / vbv_maxrate=6960 / vbv_bufsize=9280 / nal_hrd=vbr / filler=0 / ip_ratio=1.40 / aq=1:1.00
    + ~' [7 n) [5 Q* t  \! HDefault                                  : Yes. _4 [( o4 r  q! l
    Forced                                   : No
    4 d, j0 z! Z; B: z8 H
    * V( V. N8 e5 x! J1 e& qAudio
    ! H* _/ i3 Q1 L+ P* RID                                       : 2( }- Z" X6 z: e9 {) b; B
    Format                                   : E-AC-3
    - a; h9 O3 F$ c4 A3 P4 r4 KFormat/Info                              : Enhanced Audio Coding 3
    - e: u3 i) S9 i. z. ?  m5 h8 DFormat profile                           : E-AC-3+Atmos / E-AC-3
    2 p, [8 ^* d9 H$ N: l, TFormat settings, Endianness              : Big
    8 J! Q7 P" s, h; Z+ N' x* d( B# H7 cCodec ID                                 : A_EAC3. I* [! p7 H9 x" J) R4 x2 p! C
    Duration                                 : 1 h 34 min
    % A' Q' u9 i- p5 @+ kBit rate mode                            : Constant8 j* W' y- W# H7 I" M8 [& A+ k, [; q
    Bit rate                                 : 448 kb/s8 |+ M+ e/ B7 s% O5 m
    Channel(s)                               : 15 objects / 6 channels# {. H7 U- @' a: b
    Channel positions                        : 15 objects / Front: L C R, Side: L R, LFE
    & v+ I$ G; r! h& V( KSampling rate                            : 48.0 kHz
    * L! a, U1 E9 B+ o3 j2 i/ X( dFrame rate                               : 187.500 FPS (256 SPF)
      a0 e4 B* o8 K, q  yCompression mode                         : Lossy
    , [) C- q( D  m  g: nStream size                              : 302 MiB (9%)2 B3 |) _7 f# Y" R
    Language                                 : English( c2 X0 C8 ^2 c; z9 L/ m
    Service kind                             : Complete Main
    9 J) p3 h" `$ e; s3 f& Y  JDefault                                  : Yes% J! H; a& Z9 f; _( i% w
    Forced                                   : No: U$ ?' G2 K* [- `

    / @' [7 W$ E2 Z% n- c" [5 g# RText #13 I* n$ s0 u* u* l6 S& z3 P
    ID                                       : 3
    6 ^6 {9 c# e9 g! CFormat                                   : UTF-8
    5 o# w# L* A$ ]# p* W' N* K" ?Codec ID                                 : S_TEXT/UTF80 |$ K  v: @3 {, x# w* G
    Codec ID/Info                            : UTF-8 Plain Text  c+ s$ n4 C' U% T& U
    Duration                                 : 1 h 29 min' X5 Z) X- }7 i; [$ V! m
    Bit rate                                 : 53 b/s
      Y7 d' {1 f  ?7 \1 \7 \5 D. {Count of elements                        : 1238
    0 L4 d1 e: v4 S( t' G8 MStream size                              : 34.7 KiB (0%)
    ! p+ q& M& E- I# \0 u$ YLanguage                                 : English
    * S7 p  V0 P; i% I2 b  nDefault                                  : No
    2 K- v& ^7 R  ]& ^) A7 r* @Forced                                   : No# T9 z/ a4 Z/ c% A7 D
    # g. S3 j- s, _% J! o: R( v4 F
    Text #20 e" k. W7 S! w2 j
    ID                                       : 44 ?! z& w+ s' f7 P3 v- C% q! ]
    Format                                   : UTF-8( \9 H0 q) ^6 c
    Codec ID                                 : S_TEXT/UTF8# s2 e5 c9 W* `4 X
    Codec ID/Info                            : UTF-8 Plain Text* R/ g& o& r+ Y$ c" N6 s8 Y
    Duration                                 : 1 h 29 min
    9 Y" y* k5 M) BBit rate                                 : 32 b/s3 e4 y7 C5 K* e$ P% l* Y
    Count of elements                        : 806
    3 e5 X9 U/ Q' A- qStream size                              : 21.6 KiB (0%)  P, j9 P8 {* A7 J
    Language                                 : Dutch
    & {7 C; f* I9 jDefault                                  : No  L7 `5 n7 k& K5 {
    Forced                                   : No2 `7 w4 r: E. I. ~' S$ f
    $ W+ K! E; d6 [6 Q8 Q
    Text #3! \5 ^3 v6 O  J& |8 V- ?
    ID                                       : 5
    2 ?7 d/ a" F, e$ yFormat                                   : UTF-8
      j) }: x3 l2 f- n6 |5 G6 [4 qCodec ID                                 : S_TEXT/UTF8' O& _1 @# G- L- H
    Codec ID/Info                            : UTF-8 Plain Text1 Z) _/ _# r9 e# _0 z% q
    Duration                                 : 1 h 29 min
    % s3 V7 L: z1 o) V. y+ V. uBit rate                                 : 36 b/s
    7 ^  k6 P0 q1 |2 t, E" ~3 Z# ~5 qCount of elements                        : 882
    4 X2 _. O. O9 j# ~" u. AStream size                              : 24.1 KiB (0%)/ \" g* U. W4 V! y6 a7 j) E, v
    Title                                    : European4 @& T$ q/ C4 I1 X+ b7 z
    Language                                 : Spanish
    ( s. D8 L1 k1 T9 j" d8 _8 |Default                                  : No
    1 i9 v' B7 p# r+ tForced                                   : No
    6 ?  w  T8 _9 R7 \& b- g, J1 M- x
    6 \4 u% O' Z+ @- T4 X: yText #4) q5 A2 J2 a1 n2 z7 T
    ID                                       : 63 V9 v+ u0 w* e/ e0 {8 J
    Format                                   : UTF-8
    + Q& q4 E2 t% X4 U& p2 ^Codec ID                                 : S_TEXT/UTF8* Z8 W2 a# h* F* u& |/ G
    Codec ID/Info                            : UTF-8 Plain Text0 A* n, |0 j! S+ H9 t# x, E
    Duration                                 : 1 h 29 min  \7 p# }  h8 d: ?8 T
    Bit rate                                 : 31 b/s
    + X& e4 m8 z, }Count of elements                        : 845
    8 ?6 _( B* z1 J9 {3 NStream size                              : 20.8 KiB (0%)
    / t4 U1 f* [& ?. a# P" Z7 }Language                                 : French$ v9 l* Q0 _8 \& K9 @* _8 O
    Default                                  : No) F' d4 E7 B2 y' e, K0 j
    Forced                                   : No
    . A* `" g: U+ Q! a0 U: W
    9 m2 ?/ y9 J+ v* b' ]& H/ \Text #5
    ' n6 M* {6 Z' P* `% |ID                                       : 7" b- F% y& b& P0 K5 x( r/ W/ h" Q
    Format                                   : UTF-8
    ; [$ I* _5 F1 [: vCodec ID                                 : S_TEXT/UTF82 x6 ~' ~4 @9 O1 s
    Codec ID/Info                            : UTF-8 Plain Text
    4 n% t+ q1 @- Y- L, a; ]- vDuration                                 : 1 h 29 min2 O: o$ T5 m$ \9 Y' d
    Bit rate                                 : 37 b/s
    # e+ G) c; Y7 W/ H5 O8 F$ j8 \7 s7 tCount of elements                        : 855. l2 ]; F8 C2 ]) ]3 ]
    Stream size                              : 24.3 KiB (0%)
    + F3 v5 N3 S1 l! {7 B6 BLanguage                                 : German
    ! O, Q" `% W( {9 {8 i4 `Default                                  : No
    / i3 _# W- W2 u1 ^2 JForced                                   : No  h7 P# [: H' |5 q/ P. i

      X" I' H( D+ f) T  z1 Y. p

    6 m, m# V6 Z* Y" R- l- ^+ J, K

    * Q2 [/ ]% E0 \  ]7 ]: L& P

    本帖子中包含更多资源

    您需要 登录 才可以下载或查看,没有帐号?立即注册

    x
    回复

    使用道具 举报

  • TA的每日心情
    1
    2018-3-29 14:05
  • 签到天数: 14 天

    [LV.3]偶尔看看II

    发表于 2018-3-4 20:18:51 | 显示全部楼层
    thank you for your share
    回复 支持 反对

    使用道具 举报

    您需要登录后才可以回帖 登录 | 立即注册

    本版积分规则

    QQ|广告友链合作联系QQ1820944494|小黑屋|威酷高清影视论坛

    GMT+8, 2018-12-11 19:42 , Processed in 0.022872 second(s), 12 queries , Gzip On, Redis On.

    Powered by Discuz! X3.4

    © 2001-2017 Comsenz Inc.

    快速回复 返回顶部 返回列表