威酷高清论坛

 找回密码
 立即注册

QQ登录

只需一步,快速开始

查看: 1975|回复: 1

[恐怖] 黑森灵 The.Ritual.2018.iNTERNAL.1080p.WEB.x264-STRiFE 3.35GB

[复制链接]
  • TA的每日心情
    9
    2015-8-23 17:39
  • 签到天数: 124 天

    [LV.7]常住居民III

    发表于 2018-2-14 16:16:49 | 显示全部楼层 |阅读模式
    ◎译  名 黑森灵/黑森灵(台)
    ◎片  名 The Ritual
    ◎年  代 2017
    ◎产  地 英国
    ◎类  别 恐怖
    ◎语  言 英语
    ◎上映日期 2017-10-13(英国)
    ◎IMDb评分  6.3/10 from 1,181 users
    ◎豆瓣评分 5.2/10 from 13 users
    ◎片  长 94分钟
    ◎导  演 大卫·布鲁克纳 David Bruckner
    ◎主  演 拉菲·斯波 Rafe Spall
          罗伯·詹姆斯-克里尔 Rob James-Collier
          山姆·特劳顿 Sam Troughton
          阿舍尔·阿里 Arsher Ali
          Paul Reid
          Kerri McLean
          Maria Erwolter
          Jacob James Beswick
          Francesca Mula

    , b1 V9 V* G1 a' k& c
    ◎简  介

    . e2 H6 f2 C( A1 X. ]
      故事讲述大学里的四个老朋友徒步穿越斯堪的纳维亚的荒野,然而错误的决定让他们深入北欧神话传说中的神秘黑森林,一个古老邪恶的生物也盯上几个人。
    1 Q+ s5 \- j% P7 E+ A: V* P- C
    ◎获奖情况
    : G! ]! B) H! }! V2 z2 j+ q
      第20届英国独立电影奖  (2017)
      最佳视效

    7 y! i; a1 c6 y$ _% |
    Video
    % s5 p9 i/ x. a7 rID                                       : 1* m8 }: ~; ^1 j" w9 |! k9 }
    Format                                   : AVC
      t( F! ~% q. d: f+ M8 G3 i+ tFormat/Info                              : Advanced Video Codec
    % s6 V) S% v: I% l& c8 }6 f& mFormat profile                           : Main@L4
    9 x5 a/ T* G2 mFormat settings                          : CABAC / 3 Ref Frames9 J* L1 [- p" Y* V2 q3 @
    Format settings, CABAC                   : Yes
    $ y( h5 ]% I9 n8 @) vFormat settings, RefFrames               : 3 frames
    ) @: s  x+ b3 qCodec ID                                 : V_MPEG4/ISO/AVC& K) h& t1 S$ ~) E8 Q
    Duration                                 : 1 h 34 min! q- \1 [. o! z# d7 A: N' {
    Bit rate mode                            : Variable7 A. ~4 N5 Q) n
    Bit rate                                 : 4 640 kb/s: n; X% |) F0 j1 K4 c
    Maximum bit rate                         : 6 960 kb/s
    ( R7 ]  k0 o: U3 `! r% u* OWidth                                    : 1 920 pixels+ i0 @* k" }5 F
    Height                                   : 1 080 pixels
    * E" [' Z* X" }5 _( m6 w' P$ E" fDisplay aspect ratio                     : 16:9% w( i4 p/ ], y4 v7 e0 u6 B+ M
    Frame rate mode                          : Constant
    & h' a( t! d3 [- @Frame rate                               : 23.976 (24000/1001) FPS
    7 |& o" Q6 {' c* Z9 Z  O  m' QColor space                              : YUV
    * [3 ~) q* h& `+ n! cChroma subsampling                       : 4:2:09 a6 x- [+ Y( K3 u* E6 s
    Bit depth                                : 8 bits) H- a+ A$ v' Y  Q4 u  Y7 h, Z8 s
    Scan type                                : Progressive& Z. G- d7 ]( b: c7 \% o
    Bits/(Pixel*Frame)                       : 0.093' w; ]) h& N/ ^9 B  n0 n, I. H
    Stream size                              : 3.05 GiB (91%)
    - q1 c7 ?1 W8 ?# p8 vWriting library                          : x264 core 148 r2714 2daf636
    % p, l% I  f+ B5 _, J( e% J8 qEncoding settings                        : cabac=1 / ref=3 / deblock=1:0:0 / analyse=0x1:0x111 / me=umh / subme=10 / psy=1 / psy_rd=1.00:0.00 / mixed_ref=1 / me_range=24 / chroma_me=1 / trellis=2 / 8x8dct=0 / cqm=0 / deadzone=21,11 / fast_pskip=1 / chroma_qp_offset=-2 / threads=8 / lookahead_threads=1 / sliced_threads=0 / nr=0 / decimate=1 / interlaced=0 / bluray_compat=0 / stitchable=1 / constrained_intra=0 / bframes=2 / b_pyramid=0 / b_adapt=2 / b_bias=0 / direct=3 / weightb=1 / open_gop=0 / weightp=2 / keyint=48 / keyint_min=25 / scenecut=0 / intra_refresh=0 / rc_lookahead=48 / rc=2pass / mbtree=1 / bitrate=4640 / ratetol=1.0 / qcomp=0.50 / qpmin=6 / qpmax=51 / qpstep=4 / cplxblur=20.0 / qblur=0.5 / vbv_maxrate=6960 / vbv_bufsize=9280 / nal_hrd=vbr / filler=0 / ip_ratio=1.40 / aq=1:1.00
    , _' O* t  i; W# G' [5 x6 \3 N( [Default                                  : Yes- L% i% i2 X2 a) Y  B
    Forced                                   : No& b4 ^, I; b1 R3 I

    2 k$ z2 A4 f. zAudio
    6 ^+ `! x# D7 |" TID                                       : 2
    * l$ W( ^8 `2 G) F& tFormat                                   : E-AC-3
    4 w* W" q, ]/ @: I# E% \1 l. S' x5 ^$ AFormat/Info                              : Enhanced Audio Coding 3- F% b3 e* Z: b1 V. i( _
    Format profile                           : E-AC-3+Atmos / E-AC-3
    / \& J$ T5 Y* y0 F) j4 uFormat settings, Endianness              : Big
    - z# P# c5 N3 P8 v% r' u: ^Codec ID                                 : A_EAC3
    $ j0 R" ~# e6 `% q$ f0 vDuration                                 : 1 h 34 min
    . K* t% Y0 r  V! F; ^3 a1 cBit rate mode                            : Constant
    4 a! T8 \; h) ^7 D' @6 s: P! sBit rate                                 : 448 kb/s
    6 [4 x2 o7 c% g4 K( q! }Channel(s)                               : 15 objects / 6 channels1 h+ ]3 ~( n0 m1 o1 W6 z# t% ^; j
    Channel positions                        : 15 objects / Front: L C R, Side: L R, LFE
    7 O" h+ h- {2 R# X2 ^. W3 \Sampling rate                            : 48.0 kHz
    2 H2 ?- h, E( S! u: F0 |Frame rate                               : 187.500 FPS (256 SPF)2 [* m* B2 _  D
    Compression mode                         : Lossy
    ' j2 _; R$ H0 C" _5 S4 X, DStream size                              : 302 MiB (9%)
    ( t- @) Q( O; t$ P! l* o0 |  ?Language                                 : English
    + j0 Q% T% y, YService kind                             : Complete Main
    $ a4 M) S% h* J; S: ?3 Z4 QDefault                                  : Yes7 y7 _2 f% }! |6 X
    Forced                                   : No
    7 X0 B% V$ q' n! h* H
      _% H* z& D; H, K/ GText #1
    . l* X9 {: @" jID                                       : 3
    7 X- z+ k  z( w1 Y' K8 f3 a8 PFormat                                   : UTF-8: K  y3 i& ^$ N
    Codec ID                                 : S_TEXT/UTF8
    2 W, x  t) L( z1 j( j9 o2 X8 I  iCodec ID/Info                            : UTF-8 Plain Text+ |  P& X9 J4 o3 j" ]7 u, n4 a
    Duration                                 : 1 h 29 min: X5 Z, C5 o! c" J8 D" |
    Bit rate                                 : 53 b/s* y2 y; y2 e0 a: _% S! M+ m/ X5 p
    Count of elements                        : 1238& [" V- F+ @9 Q  `' D% V: w6 m1 B, s
    Stream size                              : 34.7 KiB (0%)# R# N. E1 X" Z$ R# V
    Language                                 : English
    ( p/ K6 ?. k, B7 K- \& [Default                                  : No
    1 `3 v' k7 C7 L* a8 v, tForced                                   : No  p4 J" a+ _- l3 t( d

    / n' j9 I, `% ~9 m! r8 j; JText #2# ^7 L  {- O3 @, {, {) I4 Z+ n  M
    ID                                       : 4
    $ y5 T/ r) F# pFormat                                   : UTF-8% }6 k8 i0 d. U* T
    Codec ID                                 : S_TEXT/UTF8
    ; C8 Z9 U+ N3 V8 i+ I' G( pCodec ID/Info                            : UTF-8 Plain Text
    " ^- H9 t. J8 ^, M) S) wDuration                                 : 1 h 29 min
    + z3 F  F( {5 h) i8 x) bBit rate                                 : 32 b/s
    % C3 t$ N  r' z; u0 f! oCount of elements                        : 806
    / l' Z; u# |/ ]& }2 u$ lStream size                              : 21.6 KiB (0%)* E8 `- Q; q6 w7 K) v, w
    Language                                 : Dutch
    / r, Y, [3 G, i3 _. c* c9 y7 \Default                                  : No
    6 Y& n8 K" Y% {9 e+ u7 J5 R  yForced                                   : No
    , H/ R# ^$ M9 Q; a( b! V: K7 b* K5 p
    Text #3
    & A  c% {- x' {$ n- EID                                       : 57 P  W  r6 l* m' y% ]- E
    Format                                   : UTF-8/ |( u! g4 a* t
    Codec ID                                 : S_TEXT/UTF8% {/ ^3 z& y1 o2 c( ?$ w/ j
    Codec ID/Info                            : UTF-8 Plain Text9 b" c4 e- e+ C* K# l
    Duration                                 : 1 h 29 min2 N* W+ D  I9 b0 p- j9 R
    Bit rate                                 : 36 b/s
    ! `: ?: o9 l5 S3 Z, i% Q% R) lCount of elements                        : 882- ^8 z4 r# y2 x# D" h
    Stream size                              : 24.1 KiB (0%)3 i  U  F6 g3 Q3 S# ^" K5 G
    Title                                    : European+ D6 ?$ V0 A& G
    Language                                 : Spanish! Q( c7 I! |5 y; m
    Default                                  : No
    ( o: D2 I9 Q6 F5 o( \% cForced                                   : No% E% ^! g$ R* r- I
    ) o+ j! i7 V. @: p) r& c
    Text #4: K: a( g( r1 j6 A
    ID                                       : 6
    8 B7 V' w: b& [  T# v. KFormat                                   : UTF-8
    , c1 T& R" T. QCodec ID                                 : S_TEXT/UTF8( c* ?. e% d  h8 B" V
    Codec ID/Info                            : UTF-8 Plain Text2 ^* {' |8 j! m1 b5 f1 V
    Duration                                 : 1 h 29 min
    4 @) S; S5 b: Q) c! IBit rate                                 : 31 b/s
    2 Z$ q& `1 x1 ?. \3 MCount of elements                        : 8455 N; t+ D; J& F+ [; f
    Stream size                              : 20.8 KiB (0%)0 v: r/ a8 C" U; L0 N2 Y
    Language                                 : French
    9 F' g7 |. C& _Default                                  : No8 t& O( Q: @8 |) {
    Forced                                   : No
    0 l2 I& Y6 [# A& s( F, M& k% J. p' G$ B. Y1 ]
    Text #5
    / w7 z: N: i  k5 eID                                       : 7
    # N0 H1 R. o2 A  i' s: IFormat                                   : UTF-8
      s! D7 s1 j1 v/ t9 DCodec ID                                 : S_TEXT/UTF8
    4 `5 N, \) J# ~$ z% i  @Codec ID/Info                            : UTF-8 Plain Text7 h) ^9 g. g/ a6 e. U$ B- u
    Duration                                 : 1 h 29 min
    7 N" a" y0 D' ]! w# uBit rate                                 : 37 b/s! p% d" y- ]2 H% q. g: d& T2 R
    Count of elements                        : 855
    5 J8 i$ I2 u. {Stream size                              : 24.3 KiB (0%)1 L. h1 u/ p3 a# V# ?
    Language                                 : German( H% R( w5 m' K8 N+ }: X7 C
    Default                                  : No
    , K! p; E9 i9 e% x. A9 BForced                                   : No7 x: F% |/ s8 F+ v7 D' h

      j0 t1 K' C" Q- {7 i/ \

    0 ~6 @) [) N+ a7 s
    3 e; T7 \* D, D2 ?

    本帖子中包含更多资源

    您需要 登录 才可以下载或查看,没有帐号?立即注册

    x
    回复

    使用道具 举报

  • TA的每日心情
    1
    2018-3-29 14:05
  • 签到天数: 14 天

    [LV.3]偶尔看看II

    发表于 2018-3-4 20:18:51 | 显示全部楼层
    thank you for your share
    回复 支持 反对

    使用道具 举报

    您需要登录后才可以回帖 登录 | 立即注册

    本版积分规则

    QQ|广告友链合作联系QQ1820944494|小黑屋|威酷高清影视论坛

    GMT+8, 2018-9-24 02:13 , Processed in 0.019320 second(s), 11 queries , Gzip On, Redis On.

    Powered by Discuz! X3.4

    © 2001-2017 Comsenz Inc.

    快速回复 返回顶部 返回列表