威酷高清论坛

 找回密码
 立即注册

QQ登录

只需一步,快速开始

查看: 1902|回复: 1

[恐怖] 黑森灵 The.Ritual.2018.iNTERNAL.1080p.WEB.x264-STRiFE 3.35GB

[复制链接]
  • TA的每日心情
    9
    2015-8-23 17:39
  • 签到天数: 124 天

    [LV.7]常住居民III

    发表于 2018-2-14 16:16:49 | 显示全部楼层 |阅读模式
    ◎译  名 黑森灵/黑森灵(台)
    ◎片  名 The Ritual
    ◎年  代 2017
    ◎产  地 英国
    ◎类  别 恐怖
    ◎语  言 英语
    ◎上映日期 2017-10-13(英国)
    ◎IMDb评分  6.3/10 from 1,181 users
    ◎豆瓣评分 5.2/10 from 13 users
    ◎片  长 94分钟
    ◎导  演 大卫·布鲁克纳 David Bruckner
    ◎主  演 拉菲·斯波 Rafe Spall
          罗伯·詹姆斯-克里尔 Rob James-Collier
          山姆·特劳顿 Sam Troughton
          阿舍尔·阿里 Arsher Ali
          Paul Reid
          Kerri McLean
          Maria Erwolter
          Jacob James Beswick
          Francesca Mula
    9 |! d1 {- O1 b  _% x9 z
    ◎简  介
    & `. y) K$ y5 b
      故事讲述大学里的四个老朋友徒步穿越斯堪的纳维亚的荒野,然而错误的决定让他们深入北欧神话传说中的神秘黑森林,一个古老邪恶的生物也盯上几个人。

    4 u4 V8 q0 D/ C4 q- g
    ◎获奖情况
    # a. K& M* f& {
      第20届英国独立电影奖  (2017)
      最佳视效

    $ q6 a0 e! J) ?! p( H; P0 n8 F; H
    Video- G/ O. {( g2 {4 V/ e
    ID                                       : 1( |% l  L6 d5 I+ k2 c$ I
    Format                                   : AVC% E" S0 B$ m- P1 D+ T
    Format/Info                              : Advanced Video Codec
    1 ^0 o  j9 c5 M) r4 z0 ZFormat profile                           : Main@L47 Y) G9 G1 g- R  l* z: x
    Format settings                          : CABAC / 3 Ref Frames
    ! o  U. O; \1 T9 [6 pFormat settings, CABAC                   : Yes
    * y' l' e: G, KFormat settings, RefFrames               : 3 frames  `# T! J1 I3 y) l2 ]
    Codec ID                                 : V_MPEG4/ISO/AVC
    , `9 f$ b0 O3 H# \Duration                                 : 1 h 34 min/ q3 k+ F* [% h9 T
    Bit rate mode                            : Variable
    ( O! N& @* i0 `, d& k( c4 TBit rate                                 : 4 640 kb/s
    0 V& P4 D3 O& k8 R9 M( vMaximum bit rate                         : 6 960 kb/s$ R7 \5 s0 V! c/ i& k% T+ x
    Width                                    : 1 920 pixels
    + c8 ~7 _* q& L! ~! [" `0 dHeight                                   : 1 080 pixels
    ) r: C$ A! U& Q' YDisplay aspect ratio                     : 16:9
    ) ?' ?9 P- u* f4 ~( }6 Q. z9 `Frame rate mode                          : Constant
    . `- ]9 n1 ~! U8 M1 {1 k" ]Frame rate                               : 23.976 (24000/1001) FPS
    ' i, Y" O5 J1 d2 [' h+ ~Color space                              : YUV# n" j& X: c' ^0 V
    Chroma subsampling                       : 4:2:0  ?! V" m. P! {( m
    Bit depth                                : 8 bits$ N  h3 Y9 y8 V4 }. Y3 X) T. g3 j
    Scan type                                : Progressive
    1 U- v# e, P. `# _2 tBits/(Pixel*Frame)                       : 0.0936 Q4 W+ |: N7 q7 c4 A/ {
    Stream size                              : 3.05 GiB (91%)
    3 U0 w( B7 I3 A0 p, E$ d6 OWriting library                          : x264 core 148 r2714 2daf636% x; f( X' s/ T
    Encoding settings                        : cabac=1 / ref=3 / deblock=1:0:0 / analyse=0x1:0x111 / me=umh / subme=10 / psy=1 / psy_rd=1.00:0.00 / mixed_ref=1 / me_range=24 / chroma_me=1 / trellis=2 / 8x8dct=0 / cqm=0 / deadzone=21,11 / fast_pskip=1 / chroma_qp_offset=-2 / threads=8 / lookahead_threads=1 / sliced_threads=0 / nr=0 / decimate=1 / interlaced=0 / bluray_compat=0 / stitchable=1 / constrained_intra=0 / bframes=2 / b_pyramid=0 / b_adapt=2 / b_bias=0 / direct=3 / weightb=1 / open_gop=0 / weightp=2 / keyint=48 / keyint_min=25 / scenecut=0 / intra_refresh=0 / rc_lookahead=48 / rc=2pass / mbtree=1 / bitrate=4640 / ratetol=1.0 / qcomp=0.50 / qpmin=6 / qpmax=51 / qpstep=4 / cplxblur=20.0 / qblur=0.5 / vbv_maxrate=6960 / vbv_bufsize=9280 / nal_hrd=vbr / filler=0 / ip_ratio=1.40 / aq=1:1.000 o+ o2 c! U/ _
    Default                                  : Yes& Y% y& _' T1 Q: E; z) v* p0 U: N3 g
    Forced                                   : No
    . V6 ^% q! v5 a) r
    . o# u! F: X# J* W* WAudio
    3 j' B3 B# j! q$ KID                                       : 2
    3 r$ F- t5 v' q# A) l! [9 VFormat                                   : E-AC-34 _2 A- v$ S, @
    Format/Info                              : Enhanced Audio Coding 3% m1 u7 m: M( Q; j* \# J7 D; x+ k4 |
    Format profile                           : E-AC-3+Atmos / E-AC-3. @+ ]5 o/ k" n  T! ^: _
    Format settings, Endianness              : Big
    $ n; U4 b, x, i; D( G; w1 F, ?Codec ID                                 : A_EAC35 O' h& P( r/ f4 i- m
    Duration                                 : 1 h 34 min1 z8 j7 v' G' e8 E
    Bit rate mode                            : Constant* P/ k  C$ G" a3 b# Q4 y
    Bit rate                                 : 448 kb/s
    ( \9 \  C" T2 Z  AChannel(s)                               : 15 objects / 6 channels0 n: D; z! n# Q( g, U3 f
    Channel positions                        : 15 objects / Front: L C R, Side: L R, LFE: G3 \5 V. f( ~/ T( n
    Sampling rate                            : 48.0 kHz
    - s3 S8 v2 X/ N; j' @Frame rate                               : 187.500 FPS (256 SPF)
    + b6 a& g$ O* fCompression mode                         : Lossy
    % j' v# I8 E1 j9 D. h9 ^) x& ]Stream size                              : 302 MiB (9%)
    4 X. m8 V' X  a: X7 F! lLanguage                                 : English
    5 o4 v" X" H! F! lService kind                             : Complete Main) ]( t3 O' E1 V' E/ _; Z. O  h
    Default                                  : Yes+ k" r% g& l5 z& o" P
    Forced                                   : No- j6 W1 {& n" g4 e2 g. ]

    # C( U0 a5 s- l2 B' m8 L: ^4 |Text #1- h+ U1 {& ^9 D* U
    ID                                       : 3* o. p( W2 D" `! c+ P- X
    Format                                   : UTF-8' c  ~* x3 F0 U: |& {! a7 q8 a
    Codec ID                                 : S_TEXT/UTF8
    - H6 @! p4 ~& W6 ?- OCodec ID/Info                            : UTF-8 Plain Text
    $ i, E, i) ~- }& BDuration                                 : 1 h 29 min
    . x6 c6 U/ o1 xBit rate                                 : 53 b/s. d/ }. M5 ~: b# k! k8 F/ _1 O
    Count of elements                        : 1238" m9 E  U1 F6 t# O; H
    Stream size                              : 34.7 KiB (0%)
    9 d4 P2 U; A% N8 d# }Language                                 : English
    " N4 Q  u4 e" l8 P- L/ U% E; iDefault                                  : No9 i! k7 c. d- ?, }, }9 ]
    Forced                                   : No& {9 q. O1 D: [% k6 P

      g/ ~# _4 H# `3 ~) P& z4 oText #2( c9 I$ \  K, q* Z, V  n
    ID                                       : 4' f4 E) O3 h1 w! w* b
    Format                                   : UTF-8
    & g. C; m0 P3 Q2 n$ c7 F  Z) ]Codec ID                                 : S_TEXT/UTF8
    ' ^- j% v6 U! ]Codec ID/Info                            : UTF-8 Plain Text
    / t% ^6 F+ N; P7 j9 D8 f! rDuration                                 : 1 h 29 min2 F8 J7 P/ E2 U( A
    Bit rate                                 : 32 b/s
    0 C8 d5 V7 i6 e9 v' J% U3 n; OCount of elements                        : 806  P. w- S5 w( S  w  M  V( W+ X
    Stream size                              : 21.6 KiB (0%)
    : @# t6 B* w( M. Y! A2 RLanguage                                 : Dutch
    9 r3 v! B4 A3 ]* `' u) X4 G  ODefault                                  : No& p: a' j' O: Z# t2 o: w
    Forced                                   : No! C5 O$ {, ^) S( w
    & n( w9 I# g* f% o
    Text #37 F0 O+ e3 G/ d2 K# x2 J; N
    ID                                       : 5
    6 V, m# ~! D6 |) A. r# uFormat                                   : UTF-8
    ( @; ~1 q6 `. t' T" j, p5 e3 Z8 f' z7 yCodec ID                                 : S_TEXT/UTF8( M9 I3 D9 f9 s" d8 H* H
    Codec ID/Info                            : UTF-8 Plain Text
    - y* Y! I# u0 M( i, j* bDuration                                 : 1 h 29 min* c1 J$ B3 Y! a* p. ~& \8 L+ k
    Bit rate                                 : 36 b/s' w4 V/ j, _6 s7 n
    Count of elements                        : 882
    . {7 X( `5 f5 V, K- HStream size                              : 24.1 KiB (0%)$ N/ D; N% v& h3 a5 {; D
    Title                                    : European
    $ G+ U: g, X1 c* J' m+ r1 g$ uLanguage                                 : Spanish" r. s' t9 s: w$ o$ o
    Default                                  : No1 C  A' A# q# Y, t9 e! J
    Forced                                   : No
    + v2 H. O: x$ r2 ?
    - O/ _4 V" W" q) M2 M. ^4 d6 z1 Z/ qText #4
    , R5 W- P$ _  e. b; o4 wID                                       : 62 m9 h( t& W, D) t: J
    Format                                   : UTF-80 _" ?: z) h" h% D, \
    Codec ID                                 : S_TEXT/UTF8
    - Y& x! ~4 Q3 Y) XCodec ID/Info                            : UTF-8 Plain Text: D0 F# [( {# \. l- B# w
    Duration                                 : 1 h 29 min9 n% o/ N% k+ u% ]6 [
    Bit rate                                 : 31 b/s! l0 V$ e$ T5 J" ]  N! q
    Count of elements                        : 845
    8 e" x3 Y3 P+ g9 WStream size                              : 20.8 KiB (0%). L  r; w! h# Y4 t/ {+ a
    Language                                 : French
      K7 I! J' o! A  b! }! J! @/ TDefault                                  : No! p" ~: j8 y, P/ `9 U
    Forced                                   : No
    . t; G/ ?2 P/ k: b2 y1 \
    $ a5 D( a) ]: FText #5
    / \6 z0 u, j* G& j! q; P" L" E+ ZID                                       : 7
      b: j. s5 Y4 u* k- ?/ y) N1 W( ?Format                                   : UTF-8
    ( r6 ?5 D6 e$ ]0 i% P# z0 cCodec ID                                 : S_TEXT/UTF8+ ~2 N- G! F2 K5 l, V8 Y9 |5 f
    Codec ID/Info                            : UTF-8 Plain Text
    8 X( g" J9 @( ~$ I' C5 dDuration                                 : 1 h 29 min
    ) W4 O! v3 G6 f2 Q  ~) G, t5 GBit rate                                 : 37 b/s
    , G& G& L. N  Q) o1 zCount of elements                        : 855
    , q. `: V. `( P# {! K  I1 e/ LStream size                              : 24.3 KiB (0%)5 E8 Z  k$ a& W
    Language                                 : German1 y) m* Z4 W- H; k$ x) q
    Default                                  : No5 i% V. p# K' m5 z# g5 y
    Forced                                   : No* J7 W" o+ N5 }; m  g8 L5 ~& y- F

    " |2 w2 @6 o* z. a, w
    5 V1 r! z$ [) }5 `% A" v

    ! Z; Q4 R, G9 ~) Q( X8 o

    本帖子中包含更多资源

    您需要 登录 才可以下载或查看,没有帐号?立即注册

    x
    回复

    使用道具 举报

  • TA的每日心情
    1
    2018-3-29 14:05
  • 签到天数: 14 天

    [LV.3]偶尔看看II

    发表于 2018-3-4 20:18:51 | 显示全部楼层
    thank you for your share
    回复 支持 反对

    使用道具 举报

    您需要登录后才可以回帖 登录 | 立即注册

    本版积分规则

    QQ|小黑屋|威酷高清影视论坛

    GMT+8, 2018-6-22 09:52 , Processed in 0.014573 second(s), 11 queries , Gzip On, Redis On.

    Powered by Discuz! X3.4

    © 2001-2017 Comsenz Inc.

    快速回复 返回顶部 返回列表