威酷高清论坛

 找回密码
 立即注册

QQ登录

只需一步,快速开始

查看: 4289|回复: 5

[恐怖] 变蝇人2 The.Fly.II.1989.1080p.BluRay.x264.DTS-FGT 9.32GB

[复制链接]
  • TA的每日心情
    9
    2015-8-23 17:39
  • 签到天数: 124 天

    [LV.7]常住居民III

    发表于 2018-2-14 16:17:50 | 显示全部楼层 |阅读模式
    ◎译  名 变蝇人2/魔蛹/变蝇人第二集
    ◎片  名 The Fly II
    ◎年  代 1989
    ◎产  地 美国
    ◎类  别 恐怖/科幻
    ◎语  言 英语
    ◎上映日期 1989-02-10
    ◎IMDb评分  4.9/10 from 18,380 users
    ◎豆瓣评分 6.1/10 from 2,307 users
    ◎片  长 105 分钟
    ◎导  演 Chris Walas
    ◎主  演 艾瑞克·斯托罗兹 Eric Stoltz
          达芙妮·祖尼加 Daphne Zuniga
          Lee Richardson
          约翰·盖兹 John Getz
          Frank C. Turner
    ! }7 Y/ @$ a/ v; ~* T( |" \; D
    ◎简  介
    + r* z/ d- A* u2 z7 O& A
      这部拍摄于1989年版的《变蝇人2》是1986年版《变蝇人》的续集,影片承接第一集母亲维尼卡怀上赛斯孩子的伏笔,当她产下一枚蝇蛹时被当场吓死。当局的科研机关巴托工业园收养了苍蝇之子马丁·布朗多(艾瑞克·斯托罗兹 Eric Stoltz饰),由巴托工业的老总巴托先生(约翰·盖兹 John Getz饰)抚养。巴托先生密切监视着马丁的一举一动,表面上把马丁视如己出,实则却把他当作研究对象,暗地里用摄像机记录下他所有的生活过程,让马丁研究他父亲生前的时空传送装置。马丁看上去英俊帅气,无异于常人,除了的惊人的生长速度和超人的天资才能。不久,马丁就与美丽的贝斯·洛根(达芙妮·祖尼加 Daphne Zuniga饰)坠入爱河。可隐藏在马丁体内的变异染色体突然苏醒,等待马丁的是变成下一个“苍蝇人”的恐怖噩耗。

    8 L  c0 q9 v+ M4 @! q3 e, H9 T% R
    Video
    . W% v! {* B* [) a/ ~  QID                                       : 1
    ( d7 K% E/ J5 ]0 W  V( YFormat                                   : AVC$ ?5 {; x! N$ c8 B) s& i+ n  `
    Format/Info                              : Advanced Video Codec% ]" F' r: U. h  O. t3 ]0 `; _
    Format profile                           : High@L4.18 b+ e2 G6 ~5 Q: s5 r+ d1 A* g
    Format settings                          : CABAC / 4 Ref Frames
    : Z* H; Q8 [& f  rFormat settings, CABAC                   : Yes
    * l! H  y; m' P* \* jFormat settings, ReFrames                : 4 frames  q; v& \: ^6 F! o' Z# k- r
    Codec ID                                 : V_MPEG4/ISO/AVC( w8 \0 i  ~% U# |; a0 k1 V, i! J
    Duration                                 : 1 h 44 min4 j& o' O# A: N2 D, u7 H
    Bit rate                                 : 11.5 Mb/s
      V1 U1 O3 w: d9 B4 TWidth                                    : 1 920 pixels
    : D& s% {8 N; r2 O5 ^, VHeight                                   : 1 036 pixels$ Z$ m/ d6 e; k" d+ r/ O% r
    Display aspect ratio                     : 1.85:1* k1 T; ?, q7 g4 `( j3 Z
    Frame rate mode                          : Constant
    & M" |9 A( V6 k" CFrame rate                               : 23.976 (24000/1001) FPS1 @; C7 j- K# z. u1 L
    Color space                              : YUV9 o& s8 w/ q: y$ X
    Chroma subsampling                       : 4:2:0
    4 I6 z/ T$ h% H  U+ M7 D' U  XBit depth                                : 8 bits- U# J# {* a6 L# h
    Scan type                                : Progressive5 x9 D7 g1 i3 q3 c0 M
    Bits/(Pixel*Frame)                       : 0.241
    * _5 H  C7 y( K6 N0 zStream size                              : 8.21 GiB (88%)
    ( V4 M: Z- V8 B1 FTitle                                    : The.Fly.II.1989.1080p.BluRay.x264.DTS-FGT
    3 I3 y, }' W% x! X* F6 kWriting library                          : x264 core 148 r2795 aaa9aa8
    * U- n" e3 t. e$ W  J( T- QEncoding settings                        : cabac=1 / ref=4 / deblock=1:-2:-2 / analyse=0x3:0x113 / me=umh / subme=9 / psy=1 / psy_rd=1.00:0.15 / mixed_ref=1 / me_range=16 / chroma_me=1 / trellis=2 / 8x8dct=1 / cqm=0 / deadzone=21,11 / fast_pskip=1 / chroma_qp_offset=-3 / threads=24 / lookahead_threads=3 / sliced_threads=0 / nr=0 / decimate=1 / interlaced=0 / bluray_compat=0 / constrained_intra=0 / bframes=3 / b_pyramid=2 / b_adapt=2 / b_bias=0 / direct=3 / weightb=1 / open_gop=0 / weightp=2 / keyint=250 / keyint_min=25 / scenecut=40 / intra_refresh=0 / rc_lookahead=50 / rc=abr / mbtree=1 / bitrate=11500 / ratetol=1.0 / qcomp=0.60 / qpmin=0 / qpmax=69 / qpstep=4 / vbv_maxrate=31250 / vbv_bufsize=31250 / nal_hrd=none / filler=0 / ip_ratio=1.40 / aq=1:1.00
    6 x6 \, h; G8 `: ~7 S# B0 A/ jLanguage                                 : English
    2 S* N% d  G5 ], F3 C# ODefault                                  : Yes& L6 ?% H6 n% l( S3 d( I/ G
    Forced                                   : No
    " E7 X" C* X' I4 P! @5 q" Q+ R% _" j; F
    Audio4 f/ ?/ K4 Z6 u
    ID                                       : 2
    $ q- M0 p: u4 L' iFormat                                   : DTS! S2 }8 J3 H( t; W7 g/ T
    Format/Info                              : Digital Theater Systems
    6 a! t1 P. `- x/ o) [1 W) tCodec ID                                 : A_DTS3 q$ `* M! X. l% l2 N0 [
    Duration                                 : 1 h 44 min
    6 }( W0 [  @, A0 u! X6 f( X% q; HBit rate mode                            : Constant  l0 S" W" ~! ^& u
    Bit rate                                 : 1 509 kb/s) i. f+ p0 D/ x( G
    Channel(s)                               : 6 channels
    . U1 X2 T: p; n8 S" P6 [0 iChannel positions                        : Front: L C R, Side: L R, LFE3 \. G& \+ W; e. x  Z- j
    Sampling rate                            : 48.0 kHz* l& d- I9 L% j, c- ~% K
    Frame rate                               : 93.750 FPS (512 SPF)
    / x% G( c' m( ]1 |( KBit depth                                : 16 bits, I0 s5 y0 {0 ]+ a
    Compression mode                         : Lossy
    : N. c8 w( Q3 D. e1 t% YStream size                              : 1.10 GiB (12%)& r" d7 e/ m+ p) U
    Title                                    : The.Fly.II.1989.1080p.BluRay.x264.DTS-FGT# ]! ~8 C+ V1 w# j( @
    Language                                 : English$ D2 i5 z8 A/ O; q+ p' a) o
    Default                                  : Yes6 p6 O7 x, f4 ~1 f
    Forced                                   : No/ \. ]. d1 s9 r

    4 o4 S; Q# n4 W7 j- c% O: E5 ^( \6 CMenu& c9 D/ K: U, |5 \. k# C( _9 g; ~, o
    00:00:00.000                             : en:Chapter 01
    / I1 ?; E) |* T1 U/ _/ M00:04:54.085                             : en:Chapter 02$ K( x/ \( B8 |
    00:18:19.765                             : en:Chapter 032 O4 J7 m! _5 f
    00:29:39.861                             : en:Chapter 04' @8 N9 a4 }+ O/ }. C, c
    00:42:30.965                             : en:Chapter 05
    . y" g1 k1 {2 @% K" b00:57:01.042                             : en:Chapter 06
    + f& X4 x( \& o01:07:34.216                             : en:Chapter 07
    8 |" P* U- U* B2 U01:20:08.470                             : en:Chapter 08: }; z# S1 H, _5 Y5 d& v
    01:31:34.822                             : en:Chapter 09- b  }. L% K# h- h* D0 W6 [" n; x
    01:41:13.192                             : en:Chapter 10
    + e4 t. s9 ]2 c, B) i6 L
    2 t7 }1 q: v+ B0 Y  J0 Q) R

    " h$ j3 |, m, U; m- M' v, A0 g6 e9 e# i  E% ~8 E! O
    $ r0 Z0 l7 e) x( S
    & [- j$ E2 [. x: ]

    5 @2 J3 J. m4 J  J
    / L; \+ M8 y% q2 ]" a9 V

    5 R2 W" O7 [. }" F! v2 h# |' Y0 o( Q9 _) [) V0 m

    本帖子中包含更多资源

    您需要 登录 才可以下载或查看,没有帐号?立即注册

    x
    回复

    使用道具 举报

  • TA的每日心情
    1
    2018-3-29 14:05
  • 签到天数: 14 天

    [LV.3]偶尔看看II

    发表于 2018-3-4 20:17:56 | 显示全部楼层
    thank you for your share
    回复 支持 反对

    使用道具 举报

  • TA的每日心情
    8
    4 天前
  • 签到天数: 339 天

    [LV.8]以坛为家I

    发表于 2018-3-30 08:54:07 | 显示全部楼层
    多谢楼主无私分享!
    回复 支持 反对

    使用道具 举报

  • TA的每日心情
    9
    昨天 21:40
  • 签到天数: 832 天

    [LV.10]以坛为家III

    发表于 2018-5-5 21:47:40 | 显示全部楼层
    这部电影有意思的下载来看看
    回复 支持 反对

    使用道具 举报

  • TA的每日心情
    1
    2018-11-28 19:24
  • 签到天数: 58 天

    [LV.5]常住居民I

    发表于 2018-6-20 11:35:07 | 显示全部楼层
    记得第一部挺好看,一直没看过续集。
    2 e* S' U0 O1 C. s, c7 A  L
    回复 支持 反对

    使用道具 举报

    您需要登录后才可以回帖 登录 | 立即注册

    本版积分规则

    QQ|广告友链合作联系QQ1820944494|小黑屋|威酷高清影视论坛

    GMT+8, 2018-12-14 02:49 , Processed in 0.043079 second(s), 11 queries , Gzip On, Redis On.

    Powered by Discuz! X3.4

    © 2001-2017 Comsenz Inc.

    快速回复 返回顶部 返回列表