威酷高清论坛

 找回密码
 立即注册

QQ登录

只需一步,快速开始

查看: 4037|回复: 5

[恐怖] 变蝇人2 The.Fly.II.1989.1080p.BluRay.x264.DTS-FGT 9.32GB

[复制链接]
  • TA的每日心情
    9
    2015-8-23 17:39
  • 签到天数: 124 天

    [LV.7]常住居民III

    发表于 2018-2-14 16:17:50 | 显示全部楼层 |阅读模式
    ◎译  名 变蝇人2/魔蛹/变蝇人第二集
    ◎片  名 The Fly II
    ◎年  代 1989
    ◎产  地 美国
    ◎类  别 恐怖/科幻
    ◎语  言 英语
    ◎上映日期 1989-02-10
    ◎IMDb评分  4.9/10 from 18,380 users
    ◎豆瓣评分 6.1/10 from 2,307 users
    ◎片  长 105 分钟
    ◎导  演 Chris Walas
    ◎主  演 艾瑞克·斯托罗兹 Eric Stoltz
          达芙妮·祖尼加 Daphne Zuniga
          Lee Richardson
          约翰·盖兹 John Getz
          Frank C. Turner
    9 K1 g1 v% a8 B6 X# J0 R
    ◎简  介
    " Q3 M/ g; |  z3 _# m. c$ ?! w
      这部拍摄于1989年版的《变蝇人2》是1986年版《变蝇人》的续集,影片承接第一集母亲维尼卡怀上赛斯孩子的伏笔,当她产下一枚蝇蛹时被当场吓死。当局的科研机关巴托工业园收养了苍蝇之子马丁·布朗多(艾瑞克·斯托罗兹 Eric Stoltz饰),由巴托工业的老总巴托先生(约翰·盖兹 John Getz饰)抚养。巴托先生密切监视着马丁的一举一动,表面上把马丁视如己出,实则却把他当作研究对象,暗地里用摄像机记录下他所有的生活过程,让马丁研究他父亲生前的时空传送装置。马丁看上去英俊帅气,无异于常人,除了的惊人的生长速度和超人的天资才能。不久,马丁就与美丽的贝斯·洛根(达芙妮·祖尼加 Daphne Zuniga饰)坠入爱河。可隐藏在马丁体内的变异染色体突然苏醒,等待马丁的是变成下一个“苍蝇人”的恐怖噩耗。
    4 d) W  U  T! o; [- P* T
    Video
    3 I8 v0 @" k1 A8 ?- D8 BID                                       : 13 m4 y/ j1 m9 m
    Format                                   : AVC" N2 F. ~& g' |( e! S4 L) m
    Format/Info                              : Advanced Video Codec* z. f" Y; U; c4 B* {( ?7 j& T
    Format profile                           : High@L4.1
    , E& p1 t$ B+ e7 EFormat settings                          : CABAC / 4 Ref Frames# k5 _9 ?& u; x3 W) d2 @
    Format settings, CABAC                   : Yes6 D5 ?2 d" f# r% |( i# x# n1 P
    Format settings, ReFrames                : 4 frames
    8 R% W6 ]# V$ R7 ]Codec ID                                 : V_MPEG4/ISO/AVC, S& B$ [4 W6 g3 ^; W
    Duration                                 : 1 h 44 min- m( q& e: \5 s6 Q, N$ Z8 x* t; {% _; K
    Bit rate                                 : 11.5 Mb/s/ l/ o; z7 R) Q: e
    Width                                    : 1 920 pixels
    + @9 U8 F' o6 S0 yHeight                                   : 1 036 pixels2 M5 d% J6 k2 T; y+ K4 Q8 f2 U
    Display aspect ratio                     : 1.85:1) ~3 Z- Z- ]- U6 s5 Q# x% l3 ]
    Frame rate mode                          : Constant& x  q4 U& x! ?% M
    Frame rate                               : 23.976 (24000/1001) FPS
    & z. A7 ^; `$ \- q" c4 R' N. a# MColor space                              : YUV9 {& T  n% s5 Z" G% [
    Chroma subsampling                       : 4:2:0) Y/ `" d0 e& H9 O. `: N2 u
    Bit depth                                : 8 bits( Y  K% |* h9 k! o6 ~( v
    Scan type                                : Progressive4 K) K- }8 S. T. p; u8 u# x$ i; X: }( F
    Bits/(Pixel*Frame)                       : 0.241
    , `9 b! d0 r- V1 Q! h6 zStream size                              : 8.21 GiB (88%)+ h4 d. s1 h& @- j
    Title                                    : The.Fly.II.1989.1080p.BluRay.x264.DTS-FGT
    . @# Q- o/ w5 F: U, l+ HWriting library                          : x264 core 148 r2795 aaa9aa8
    % K6 _3 Q/ e. m3 ]8 yEncoding settings                        : cabac=1 / ref=4 / deblock=1:-2:-2 / analyse=0x3:0x113 / me=umh / subme=9 / psy=1 / psy_rd=1.00:0.15 / mixed_ref=1 / me_range=16 / chroma_me=1 / trellis=2 / 8x8dct=1 / cqm=0 / deadzone=21,11 / fast_pskip=1 / chroma_qp_offset=-3 / threads=24 / lookahead_threads=3 / sliced_threads=0 / nr=0 / decimate=1 / interlaced=0 / bluray_compat=0 / constrained_intra=0 / bframes=3 / b_pyramid=2 / b_adapt=2 / b_bias=0 / direct=3 / weightb=1 / open_gop=0 / weightp=2 / keyint=250 / keyint_min=25 / scenecut=40 / intra_refresh=0 / rc_lookahead=50 / rc=abr / mbtree=1 / bitrate=11500 / ratetol=1.0 / qcomp=0.60 / qpmin=0 / qpmax=69 / qpstep=4 / vbv_maxrate=31250 / vbv_bufsize=31250 / nal_hrd=none / filler=0 / ip_ratio=1.40 / aq=1:1.007 o2 N: b/ ~) H( w
    Language                                 : English
    8 s0 s2 t* D2 t2 k5 @$ a  j1 rDefault                                  : Yes
    3 J( J7 N& N/ g7 {4 W5 z$ ~/ }Forced                                   : No  K5 Q+ [* Y8 A% t. ?
    " D$ P" B* _0 A  O. o. y
    Audio# s6 D  X, H* W( }
    ID                                       : 2) k" o  F% {# e8 F" Z  e+ {
    Format                                   : DTS* k# j$ k# L3 D) x* n7 I
    Format/Info                              : Digital Theater Systems
    1 C' _: u. T2 nCodec ID                                 : A_DTS7 Y; W8 A4 ]9 K4 o; m/ e
    Duration                                 : 1 h 44 min
    0 l6 J" z- ^7 A  }Bit rate mode                            : Constant. }. L" p& l# [, v5 v  L+ w( p, z
    Bit rate                                 : 1 509 kb/s, y3 _0 J0 r6 t
    Channel(s)                               : 6 channels# d+ V; S" Z* G  I1 W. z  \
    Channel positions                        : Front: L C R, Side: L R, LFE+ p+ f# O" j6 B( g- ~, `  J  w
    Sampling rate                            : 48.0 kHz! @/ `1 Q  G: [9 F
    Frame rate                               : 93.750 FPS (512 SPF); w, G2 X+ y# D$ R1 |* A
    Bit depth                                : 16 bits
      e9 J& k: `- U+ xCompression mode                         : Lossy
    3 D/ w; q) Y. Y  z$ K# aStream size                              : 1.10 GiB (12%)* `6 x6 }. C$ Q5 ]2 K
    Title                                    : The.Fly.II.1989.1080p.BluRay.x264.DTS-FGT
    3 |4 i. d% p) ~5 |Language                                 : English: s/ E9 U( _: E0 n2 Q& s$ u4 O# t
    Default                                  : Yes7 V8 p: S2 A) Y7 F; M
    Forced                                   : No7 R# @! p+ P8 x$ h. F" Z% U
    3 h% Q8 @/ A$ P; i- D
    Menu
    $ t4 L6 t2 e' i' f00:00:00.000                             : en:Chapter 01
    3 u* E5 Y3 P# m: F* i00:04:54.085                             : en:Chapter 02: E/ |6 \# w! p" Q& U6 N4 N. _
    00:18:19.765                             : en:Chapter 03. _( e( X' p) g4 R9 _& a
    00:29:39.861                             : en:Chapter 048 n1 L( o+ \; s4 w
    00:42:30.965                             : en:Chapter 05
    % }6 [0 u0 ]0 ~00:57:01.042                             : en:Chapter 06
    ( W4 M7 F9 w$ h8 K" E: y# d% u( l01:07:34.216                             : en:Chapter 07
    5 O" {3 G  B% A6 V  q$ M01:20:08.470                             : en:Chapter 08, r) R- q1 @# B+ _. m
    01:31:34.822                             : en:Chapter 09
    ; I- \( v" W0 c* E1 Q( c& {01:41:13.192                             : en:Chapter 10
    + O& ?6 O6 K' `" _
    2 k; D# B* M: f9 K
    9 m* C3 O1 E: M' U: z" g8 Q
    2 i4 A- i$ J! [+ \& C
    ( s# ~. _8 [: v) s- ~
    * `/ m/ ]8 I! e/ c8 a) Q5 ]
    , w) Q3 u! S2 y8 A4 a! }; ]0 C) T

    ! _' `: T/ _) v0 n* Z4 D' Q$ s9 u; ^* t

    8 p) |3 {, j4 J1 r
    . w5 u6 V* A6 j1 a8 N

    本帖子中包含更多资源

    您需要 登录 才可以下载或查看,没有帐号?立即注册

    x
    回复

    使用道具 举报

  • TA的每日心情
    1
    2018-3-29 14:05
  • 签到天数: 14 天

    [LV.3]偶尔看看II

    发表于 2018-3-4 20:17:56 | 显示全部楼层
    thank you for your share
    回复 支持 反对

    使用道具 举报

  • TA的每日心情
    8
    3 天前
  • 签到天数: 283 天

    [LV.8]以坛为家I

    发表于 2018-3-30 08:54:07 | 显示全部楼层
    多谢楼主无私分享!
    回复 支持 反对

    使用道具 举报

  • TA的每日心情
    9
    昨天 19:44
  • 签到天数: 733 天

    [LV.9]以坛为家II

    发表于 2018-5-5 21:47:40 | 显示全部楼层
    这部电影有意思的下载来看看
    回复 支持 反对

    使用道具 举报

  • TA的每日心情
    1
    前天 11:33
  • 签到天数: 53 天

    [LV.5]常住居民I

    发表于 前天 11:35 | 显示全部楼层
    记得第一部挺好看,一直没看过续集。0 ]! n: u; G& m4 e" X
    回复 支持 反对

    使用道具 举报

    您需要登录后才可以回帖 登录 | 立即注册

    本版积分规则

    QQ|小黑屋|威酷高清影视论坛

    GMT+8, 2018-6-22 09:52 , Processed in 0.015028 second(s), 11 queries , Gzip On, Redis On.

    Powered by Discuz! X3.4

    © 2001-2017 Comsenz Inc.

    快速回复 返回顶部 返回列表