威酷高清论坛

 找回密码
 立即注册

QQ登录

只需一步,快速开始

查看: 4202|回复: 5

[恐怖] 变蝇人2 The.Fly.II.1989.1080p.BluRay.x264.DTS-FGT 9.32GB

[复制链接]
  • TA的每日心情
    9
    2015-8-23 17:39
  • 签到天数: 124 天

    [LV.7]常住居民III

    发表于 2018-2-14 16:17:50 | 显示全部楼层 |阅读模式
    ◎译  名 变蝇人2/魔蛹/变蝇人第二集
    ◎片  名 The Fly II
    ◎年  代 1989
    ◎产  地 美国
    ◎类  别 恐怖/科幻
    ◎语  言 英语
    ◎上映日期 1989-02-10
    ◎IMDb评分  4.9/10 from 18,380 users
    ◎豆瓣评分 6.1/10 from 2,307 users
    ◎片  长 105 分钟
    ◎导  演 Chris Walas
    ◎主  演 艾瑞克·斯托罗兹 Eric Stoltz
          达芙妮·祖尼加 Daphne Zuniga
          Lee Richardson
          约翰·盖兹 John Getz
          Frank C. Turner
    ) c# d2 Z, k8 U2 S( o3 u
    ◎简  介

    ; |( u+ K: W) T) t
      这部拍摄于1989年版的《变蝇人2》是1986年版《变蝇人》的续集,影片承接第一集母亲维尼卡怀上赛斯孩子的伏笔,当她产下一枚蝇蛹时被当场吓死。当局的科研机关巴托工业园收养了苍蝇之子马丁·布朗多(艾瑞克·斯托罗兹 Eric Stoltz饰),由巴托工业的老总巴托先生(约翰·盖兹 John Getz饰)抚养。巴托先生密切监视着马丁的一举一动,表面上把马丁视如己出,实则却把他当作研究对象,暗地里用摄像机记录下他所有的生活过程,让马丁研究他父亲生前的时空传送装置。马丁看上去英俊帅气,无异于常人,除了的惊人的生长速度和超人的天资才能。不久,马丁就与美丽的贝斯·洛根(达芙妮·祖尼加 Daphne Zuniga饰)坠入爱河。可隐藏在马丁体内的变异染色体突然苏醒,等待马丁的是变成下一个“苍蝇人”的恐怖噩耗。

    - w& W4 S6 t0 z
    Video8 l* l; M+ P1 l
    ID                                       : 17 B( N; i, U( U: c! i& T  ]8 C
    Format                                   : AVC
    # O3 P$ k2 ~& @& l, IFormat/Info                              : Advanced Video Codec7 t4 _+ @" x! V' a. H- @
    Format profile                           : High@L4.14 r& n/ x% f- `
    Format settings                          : CABAC / 4 Ref Frames
    # @' Y, R! a+ I8 V5 ?/ r1 m7 VFormat settings, CABAC                   : Yes% _8 ?5 r- e$ s6 T. _
    Format settings, ReFrames                : 4 frames
    6 D5 i9 x  P* ~* SCodec ID                                 : V_MPEG4/ISO/AVC
    , i1 l& }: M. b: v6 ODuration                                 : 1 h 44 min8 G& S5 t" c, p* s- i/ a9 I
    Bit rate                                 : 11.5 Mb/s8 k8 k" G1 _/ S8 X+ Q% w1 `* b
    Width                                    : 1 920 pixels6 G$ ?# j* ~" c) I) n# t% _
    Height                                   : 1 036 pixels# q+ ?# s( [# |8 w
    Display aspect ratio                     : 1.85:1
    . ]5 N* }6 x3 {- ]3 g9 aFrame rate mode                          : Constant
    7 u! \# l$ o  G8 Y, A" IFrame rate                               : 23.976 (24000/1001) FPS6 U' u! I7 T0 _
    Color space                              : YUV
    5 Y& W. V! A% ZChroma subsampling                       : 4:2:0! M6 C; O. c( ~
    Bit depth                                : 8 bits4 d3 r, F6 q/ ~4 q- Q
    Scan type                                : Progressive8 r" s# x. A1 a* S0 C+ R
    Bits/(Pixel*Frame)                       : 0.2417 ]7 E1 A$ W8 u( O: Z9 R
    Stream size                              : 8.21 GiB (88%)" l9 j, a1 C9 a! b
    Title                                    : The.Fly.II.1989.1080p.BluRay.x264.DTS-FGT/ h2 _0 `8 W8 o4 ]2 ?
    Writing library                          : x264 core 148 r2795 aaa9aa82 _- @& s. _' Y+ a9 Z
    Encoding settings                        : cabac=1 / ref=4 / deblock=1:-2:-2 / analyse=0x3:0x113 / me=umh / subme=9 / psy=1 / psy_rd=1.00:0.15 / mixed_ref=1 / me_range=16 / chroma_me=1 / trellis=2 / 8x8dct=1 / cqm=0 / deadzone=21,11 / fast_pskip=1 / chroma_qp_offset=-3 / threads=24 / lookahead_threads=3 / sliced_threads=0 / nr=0 / decimate=1 / interlaced=0 / bluray_compat=0 / constrained_intra=0 / bframes=3 / b_pyramid=2 / b_adapt=2 / b_bias=0 / direct=3 / weightb=1 / open_gop=0 / weightp=2 / keyint=250 / keyint_min=25 / scenecut=40 / intra_refresh=0 / rc_lookahead=50 / rc=abr / mbtree=1 / bitrate=11500 / ratetol=1.0 / qcomp=0.60 / qpmin=0 / qpmax=69 / qpstep=4 / vbv_maxrate=31250 / vbv_bufsize=31250 / nal_hrd=none / filler=0 / ip_ratio=1.40 / aq=1:1.00! U2 {9 B7 _- S6 n
    Language                                 : English9 U/ u6 O; R3 C& B/ |( Q
    Default                                  : Yes
    ) x* p$ Z1 U5 k8 x: @' |Forced                                   : No/ |  j5 H/ O1 a2 y% g; o

    * I7 Y5 C: y+ f4 uAudio
    ' I2 w9 X! B8 f1 G$ f  l7 w8 t! LID                                       : 2& q. y7 t; D) Q% d: X. f
    Format                                   : DTS
    5 N; O$ @" b) z/ k& SFormat/Info                              : Digital Theater Systems1 H! X6 n) L3 L" j
    Codec ID                                 : A_DTS
    . C  [& F( ~. N" I% FDuration                                 : 1 h 44 min( R" p: z4 `/ w& k2 N
    Bit rate mode                            : Constant, b0 i6 a. m8 M- _
    Bit rate                                 : 1 509 kb/s/ v$ A# V* O8 R& e
    Channel(s)                               : 6 channels
    ; Y+ a! M# z5 \3 f: A: OChannel positions                        : Front: L C R, Side: L R, LFE
    % v4 `& t# z9 x/ {Sampling rate                            : 48.0 kHz
    , S3 r  ?; x9 `1 GFrame rate                               : 93.750 FPS (512 SPF)
    ; ]6 L3 F& n/ r3 q8 _Bit depth                                : 16 bits2 S: _, T0 r3 q. |+ t" m
    Compression mode                         : Lossy: g4 {% W9 j& r' l/ Z
    Stream size                              : 1.10 GiB (12%)
    - D+ T. @+ G+ T! A* PTitle                                    : The.Fly.II.1989.1080p.BluRay.x264.DTS-FGT$ M' O/ a5 V1 H4 j+ [, Q
    Language                                 : English
      E0 O" s6 G" d$ K, v2 ~+ VDefault                                  : Yes4 V1 [& ]) ~5 N5 ^# c* k
    Forced                                   : No
    ; R# C$ \4 r: F8 o* `+ O: B8 p. P/ Z9 m3 e
    Menu+ b2 @6 S/ p' P8 d2 r! Q- M
    00:00:00.000                             : en:Chapter 01
    / L6 p5 T: H  Z+ p00:04:54.085                             : en:Chapter 02
    . p" m9 }3 e* R1 f3 E/ p00:18:19.765                             : en:Chapter 03
    : C& b" X+ H: Q2 p00:29:39.861                             : en:Chapter 04) M. w% `/ h6 E/ i
    00:42:30.965                             : en:Chapter 05
    ) Z# n' o0 y2 ?6 j00:57:01.042                             : en:Chapter 06' `1 K' S. V9 U+ Q( z3 N
    01:07:34.216                             : en:Chapter 07
    ; a! N+ b9 N& z8 x$ R- p" ?01:20:08.470                             : en:Chapter 08
    7 _( J5 J0 @: {- ^% _0 ?9 K5 [: f01:31:34.822                             : en:Chapter 097 n( r4 B( r1 o9 O& N  L
    01:41:13.192                             : en:Chapter 104 _+ |7 A" {- j  ?  j5 l9 B. e
    # V7 K. J9 w( O; Q4 V" N

    $ x7 C3 p; s+ o0 t8 |
    , U) o2 Q, C+ t% G
    " p) ^+ W) v9 V3 k# a
    # x5 [/ W! U% l) _2 G! F: J$ y

    5 q; p  a; v* ~( {
    9 `& V" A8 Q$ X" |3 v0 }) U
    6 O; l) w# Z6 F" \5 ~
    2 F0 s/ T4 M# N6 ^( @

    本帖子中包含更多资源

    您需要 登录 才可以下载或查看,没有帐号?立即注册

    x
    回复

    使用道具 举报

  • TA的每日心情
    1
    2018-3-29 14:05
  • 签到天数: 14 天

    [LV.3]偶尔看看II

    发表于 2018-3-4 20:17:56 | 显示全部楼层
    thank you for your share
    回复 支持 反对

    使用道具 举报

  • TA的每日心情
    8
    5 天前
  • 签到天数: 302 天

    [LV.8]以坛为家I

    发表于 2018-3-30 08:54:07 | 显示全部楼层
    多谢楼主无私分享!
    回复 支持 反对

    使用道具 举报

  • TA的每日心情
    9
    3 天前
  • 签到天数: 788 天

    [LV.10]以坛为家III

    发表于 2018-5-5 21:47:40 | 显示全部楼层
    这部电影有意思的下载来看看
    回复 支持 反对

    使用道具 举报

  • TA的每日心情
    1
    2018-6-27 08:06
  • 签到天数: 55 天

    [LV.5]常住居民I

    发表于 2018-6-20 11:35:07 | 显示全部楼层
    记得第一部挺好看,一直没看过续集。
    $ P; v+ I  X  a: u2 w1 f- r
    回复 支持 反对

    使用道具 举报

    您需要登录后才可以回帖 登录 | 立即注册

    本版积分规则

    QQ|广告友链合作联系QQ1820944494|小黑屋|威酷高清影视论坛

    GMT+8, 2018-9-22 04:09 , Processed in 0.017496 second(s), 11 queries , Gzip On, Redis On.

    Powered by Discuz! X3.4

    © 2001-2017 Comsenz Inc.

    快速回复 返回顶部 返回列表