威酷高清论坛

 找回密码
 立即注册

QQ登录

只需一步,快速开始

查看: 2106|回复: 4

[恐怖] 开膛手杰克 Jack.the.Ripper.1959.1080p.BluRay.x264.DTS-FGT 7.7GB

[复制链接]
  • TA的每日心情
    9
    2015-8-23 17:39
  • 签到天数: 124 天

    [LV.7]常住居民III

    发表于 2018-2-14 16:18:47 | 显示全部楼层 |阅读模式
    ◎译  名 开膛手杰克
    ◎片  名 Jack the Ripper
    ◎年  代 1959
    ◎产  地 英国
    ◎类  别 犯罪/恐怖/悬疑/惊悚
    ◎语  言 英语
    ◎上映日期 1959-03-28(英国)/1960-02-17(美国)
    ◎IMDb评分  6.2/10 from 458 users
    ◎片  长 84 分钟
    ◎导  演 罗伯特贝克 Robert S. Baker / Monty Berman
    ◎主  演 李·帕特森 Lee Patterson
          Eddie Byrne
          Betty McDowall
          Ewen Solon
          约翰·勒·梅苏里尔 John Le Mesurier
    / m( y& X, ~  K3 R( {# b' u
    ◎简  介

    , G9 q1 \9 `0 R" u+ u1 C
      In 1888| Jack the Ripper is on his killing spree. Scotland Yard Inspector O'Neill is pleased to welcome to London his old friend Sam Lowry| a New York City detectivewho has come to visit him and is only too happy to help out with the case. Sam becomes attracted to Anne Ford| a modern woman for the age| but her guardian| Dr.Tranter doesn't quite approve. The good doctor also seems to be out when the Ripper murders occur. As the population edge ever loser to taking the law into their ownhands| the police slowly close in the killer.
    . e- k& |$ l0 T6 N0 h
    2 v- H. P( ~6 F; z9 X
    Video
    6 Q& Z3 R# M0 J- T$ l: f( LID                                       : 1. O. ]; z& X7 h
    Format                                   : AVC
    + E4 H3 _5 p1 ~. D5 a) gFormat/Info                              : Advanced Video Codec
    / r. @$ j7 i3 ]Format profile                           : High@L4.1
      i# K0 c, h7 f; k8 SFormat settings                          : CABAC / 4 Ref Frames
    9 C; b: W* ]  E: P  `Format settings, CABAC                   : Yes
    7 C* |- e" d# j. j8 Y) z: n' YFormat settings, ReFrames                : 4 frames
    6 y  x+ y- X' [! \. ^Codec ID                                 : V_MPEG4/ISO/AVC. Z' \; R) k) |- {! `' ^
    Duration                                 : 1 h 25 min6 _6 G, G+ m4 G6 _) p) t
    Bit rate                                 : 11.5 Mb/s3 @, m3 N, D* M4 m, m" C
    Width                                    : 1 800 pixels& l; I* u) |% g8 T1 A
    Height                                   : 1 080 pixels
    8 S1 [1 k3 L) wDisplay aspect ratio                     : 5:3
    " G9 u1 }' S& N: T# lFrame rate mode                          : Constant
    * h. x5 b! `. aFrame rate                               : 23.976 (24000/1001) FPS
    , G" r% u3 \! s% @Color space                              : YUV
    0 ]9 `" }/ @& B* |' IChroma subsampling                       : 4:2:0
    3 j9 G/ x0 P# J# |Bit depth                                : 8 bits) m8 O* p6 R" {) q+ E
    Scan type                                : Progressive4 N5 e: u* R( X: q8 U/ K6 W8 o" ~$ D4 J
    Bits/(Pixel*Frame)                       : 0.247' y  S: {1 @- W9 G0 V- L
    Stream size                              : 6.82 GiB (88%)) r2 B0 k8 D+ p, I& }1 v
    Title                                    : Jack.the.Ripper.1959.1080p.BluRay.x264.DTS-FGT
    5 j2 x) K0 V* C% tWriting library                          : x264 core 148 r2795 aaa9aa8& r/ K8 U# T$ ~/ P! E
    Encoding settings                        : cabac=1 / ref=4 / deblock=1:-2:-2 / analyse=0x3:0x113 / me=umh / subme=9 / psy=1 / psy_rd=1.00:0.15 / mixed_ref=1 / me_range=16 / chroma_me=1 / trellis=2 / 8x8dct=1 / cqm=0 / deadzone=21,11 / fast_pskip=1 / chroma_qp_offset=-3 / threads=24 / lookahead_threads=3 / sliced_threads=0 / nr=0 / decimate=1 / interlaced=0 / bluray_compat=0 / constrained_intra=0 / bframes=3 / b_pyramid=2 / b_adapt=2 / b_bias=0 / direct=3 / weightb=1 / open_gop=0 / weightp=2 / keyint=250 / keyint_min=25 / scenecut=40 / intra_refresh=0 / rc_lookahead=50 / rc=abr / mbtree=1 / bitrate=11500 / ratetol=1.0 / qcomp=0.60 / qpmin=0 / qpmax=69 / qpstep=4 / vbv_maxrate=31250 / vbv_bufsize=31250 / nal_hrd=none / filler=0 / ip_ratio=1.40 / aq=1:1.00$ E; Q& r9 [1 b7 ?7 W) x: t: M
    Language                                 : English3 `* J, S) g" n
    Default                                  : Yes9 i: P* L6 Z, H9 x) e
    Forced                                   : No
    3 d- e- q6 Y" K6 O& x" t
    ( ?- A/ ^1 n; r/ Q1 MAudio
    1 E. l- `6 c( ?; @, R2 vID                                       : 2- R5 \$ o2 t7 ]6 H. A: Z
    Format                                   : DTS  R' D. |/ E  y9 A7 v
    Format/Info                              : Digital Theater Systems
    . r$ B7 c" z3 N  U8 LCodec ID                                 : A_DTS
    2 z' U7 c+ W5 o8 G# XDuration                                 : 1 h 25 min
    9 f- u4 j2 o: Q8 u& Y0 [Bit rate mode                            : Constant
    % Q" R& j) h* I- RBit rate                                 : 1 509 kb/s% O9 e( ~1 S1 W7 |, x
    Channel(s)                               : 2 channels, B' E# D. R) c; W
    Channel positions                        : Front: L R3 h# v7 J' A; ~. |4 o: A4 x9 p6 s
    Sampling rate                            : 48.0 kHz2 s* s" i; g- ^# Y' g2 T- r
    Frame rate                               : 93.750 FPS (512 SPF)1 N- f  R% ?; T3 E" X
    Bit depth                                : 16 bits/ i% H8 X' m  ?; b9 I- d
    Compression mode                         : Lossy
    ( @# l& P+ y& y0 c2 sStream size                              : 918 MiB (12%)
    * a. `0 q- u. ?1 h9 f9 DTitle                                    : Jack.the.Ripper.1959.1080p.BluRay.x264.DTS-FGT
    5 D" ?: }: K: U# R: oLanguage                                 : English
    ; Y: e1 ]9 f( z8 Z2 GDefault                                  : Yes+ s+ Z9 M8 k9 V% u
    Forced                                   : No/ _6 i! k* ?0 U/ d: b, ~2 V
    ) Y- \$ V: O: j. w4 t, J1 A
    Menu# C) F1 N/ B. e9 e8 O
    00:00:00.000                             : en:Chapter 01" L# t+ ~* N$ j" m% f! V6 _% P3 M) A$ i
    00:11:34.777                             : en:Chapter 02
    1 w0 _. W. {6 V' C; O0 ~00:23:19.022                             : en:Chapter 03+ U) v- v# t# \+ P
    00:27:37.072                             : en:Chapter 04. ^1 M  {9 g" f" D6 U
    00:44:48.310                             : en:Chapter 05! r# d# Y4 N2 O! r& B. U% a
    00:55:37.625                             : en:Chapter 06; r. l* A( C# R1 p6 p; h# r' I, O; i
    01:02:45.803                             : en:Chapter 07
    8 \$ q5 ?" u8 C) I4 |01:23:56.072                             : en:Chapter 08" n1 o- o5 X$ Y- C: p. I9 F0 P
    01:25:03.973                             : en:Chapter 09
    ' x$ C* F6 H& s

    , K- {+ t. q: w, }4 C$ e5 ?

    , l) n; L! q; Y& K
    9 L2 v% t6 u) o7 t8 `
    ( P: T1 U: i: R* n9 ?' v0 @

    : o4 }: ]1 L0 D# q1 B6 c* w4 X2 `1 n4 T) [1 ?) o+ r

    ; g5 W" J$ A; S& Q9 t: y/ ^0 k* D* x' O  o

    本帖子中包含更多资源

    您需要 登录 才可以下载或查看,没有帐号?立即注册

    x
    回复

    使用道具 举报

  • TA的每日心情
    1
    2018-3-29 14:05
  • 签到天数: 14 天

    [LV.3]偶尔看看II

    发表于 2018-3-4 20:17:32 | 显示全部楼层
    thank you for your share
    回复 支持 反对

    使用道具 举报

  • TA的每日心情
    1
    2018-3-11 15:12
  • 签到天数: 7 天

    [LV.3]偶尔看看II

    发表于 2018-3-11 15:33:45 | 显示全部楼层
    就是有点太老了
    回复 支持 反对

    使用道具 举报

  • TA的每日心情
    1
    2018-9-4 22:03
  • 签到天数: 33 天

    [LV.5]常住居民I

    发表于 2018-4-20 22:09:27 | 显示全部楼层
    没有字幕吗?
    回复 支持 反对

    使用道具 举报

  • TA的每日心情
    1
    2018-8-26 21:35
  • 签到天数: 366 天

    [LV.9]以坛为家II

    发表于 2018-7-6 22:51:49 | 显示全部楼层
    世纪谜案,终难解答
    回复 支持 反对

    使用道具 举报

    您需要登录后才可以回帖 登录 | 立即注册

    本版积分规则

    QQ|广告友链合作联系QQ1820944494|小黑屋|威酷高清影视论坛

    GMT+8, 2018-9-24 01:51 , Processed in 0.020481 second(s), 12 queries , Gzip On, Redis On.

    Powered by Discuz! X3.4

    © 2001-2017 Comsenz Inc.

    快速回复 返回顶部 返回列表