威酷高清论坛

 找回密码
 立即注册

QQ登录

只需一步,快速开始

查看: 2137|回复: 4

[恐怖] 开膛手杰克 Jack.the.Ripper.1959.1080p.BluRay.x264.DTS-FGT 7.7GB

[复制链接]
  • TA的每日心情
    9
    2015-8-23 17:39
  • 签到天数: 124 天

    [LV.7]常住居民III

    发表于 2018-2-14 16:18:47 | 显示全部楼层 |阅读模式
    ◎译  名 开膛手杰克
    ◎片  名 Jack the Ripper
    ◎年  代 1959
    ◎产  地 英国
    ◎类  别 犯罪/恐怖/悬疑/惊悚
    ◎语  言 英语
    ◎上映日期 1959-03-28(英国)/1960-02-17(美国)
    ◎IMDb评分  6.2/10 from 458 users
    ◎片  长 84 分钟
    ◎导  演 罗伯特贝克 Robert S. Baker / Monty Berman
    ◎主  演 李·帕特森 Lee Patterson
          Eddie Byrne
          Betty McDowall
          Ewen Solon
          约翰·勒·梅苏里尔 John Le Mesurier

    6 q7 H+ V9 R( r8 ~7 I/ _' ?
    ◎简  介

    7 J4 y. X8 ?  Q- {; Z; L* `; e
      In 1888| Jack the Ripper is on his killing spree. Scotland Yard Inspector O'Neill is pleased to welcome to London his old friend Sam Lowry| a New York City detectivewho has come to visit him and is only too happy to help out with the case. Sam becomes attracted to Anne Ford| a modern woman for the age| but her guardian| Dr.Tranter doesn't quite approve. The good doctor also seems to be out when the Ripper murders occur. As the population edge ever loser to taking the law into their ownhands| the police slowly close in the killer.

    ' J  I' m; L, g* w: E$ y% }% \" ]

    . N7 T9 m% l: D/ l, {+ {Video
    : U+ J+ R9 v  hID                                       : 1. Q2 u) w- |  U
    Format                                   : AVC
    0 s+ ]9 V- ]8 A7 L# k7 WFormat/Info                              : Advanced Video Codec9 ]6 w3 ?- U8 M3 u" G. f
    Format profile                           : High@L4.1
    # E3 ]# z( J  u1 v8 W- ]2 JFormat settings                          : CABAC / 4 Ref Frames
    + V6 a6 V5 j. e3 jFormat settings, CABAC                   : Yes8 i6 y; a! t# n' H
    Format settings, ReFrames                : 4 frames
    $ ~, Y9 p, Z5 Z, W7 ^Codec ID                                 : V_MPEG4/ISO/AVC" O. S7 v# u9 C3 n& D/ m0 x# {: h
    Duration                                 : 1 h 25 min$ n' |, b9 e+ K' h% K+ l
    Bit rate                                 : 11.5 Mb/s0 t+ y9 A7 S1 M. d+ ?+ @. R
    Width                                    : 1 800 pixels' z" m4 l! l2 ~# V- O
    Height                                   : 1 080 pixels
    $ Q$ X7 d+ u6 Q7 B5 x5 N% x, \8 z  BDisplay aspect ratio                     : 5:3
    , @" \1 Y! D- f0 X$ O0 `Frame rate mode                          : Constant5 w8 u. J* ^. E: k
    Frame rate                               : 23.976 (24000/1001) FPS% L0 ]+ y& }1 y6 k- c! l
    Color space                              : YUV
    ! S3 ]' u; ]: L8 |& F. _9 \# m0 xChroma subsampling                       : 4:2:0
    ) v( \/ g+ Q5 ?, iBit depth                                : 8 bits" ?# U( k; [- Y8 k' L- T8 k
    Scan type                                : Progressive3 d8 c) V+ h6 B. E
    Bits/(Pixel*Frame)                       : 0.247
    + K/ Y, Z% `' r( ~" y0 ^" X% HStream size                              : 6.82 GiB (88%)
    6 z* l6 K0 s+ _. v4 b- yTitle                                    : Jack.the.Ripper.1959.1080p.BluRay.x264.DTS-FGT
    + E4 T' L7 O) U" v% n- N6 P1 t# iWriting library                          : x264 core 148 r2795 aaa9aa82 _0 e9 b6 I) Y. D# I3 {
    Encoding settings                        : cabac=1 / ref=4 / deblock=1:-2:-2 / analyse=0x3:0x113 / me=umh / subme=9 / psy=1 / psy_rd=1.00:0.15 / mixed_ref=1 / me_range=16 / chroma_me=1 / trellis=2 / 8x8dct=1 / cqm=0 / deadzone=21,11 / fast_pskip=1 / chroma_qp_offset=-3 / threads=24 / lookahead_threads=3 / sliced_threads=0 / nr=0 / decimate=1 / interlaced=0 / bluray_compat=0 / constrained_intra=0 / bframes=3 / b_pyramid=2 / b_adapt=2 / b_bias=0 / direct=3 / weightb=1 / open_gop=0 / weightp=2 / keyint=250 / keyint_min=25 / scenecut=40 / intra_refresh=0 / rc_lookahead=50 / rc=abr / mbtree=1 / bitrate=11500 / ratetol=1.0 / qcomp=0.60 / qpmin=0 / qpmax=69 / qpstep=4 / vbv_maxrate=31250 / vbv_bufsize=31250 / nal_hrd=none / filler=0 / ip_ratio=1.40 / aq=1:1.00
    * p0 t4 n& P! A& G' QLanguage                                 : English
    7 w% f  J3 ]! z) z, C! VDefault                                  : Yes
    $ ^& x: q" [9 i( r' Y" N% MForced                                   : No0 n' {5 f- Z! E) `% l5 C
    % o, _( A$ a2 B: s+ A5 M5 h
    Audio
    3 f4 w) R4 A* a% F2 FID                                       : 2" v+ R2 ^0 s! n7 e4 \0 C
    Format                                   : DTS
    : U/ U3 t0 n. H' E( j7 LFormat/Info                              : Digital Theater Systems
      `, |4 x0 g3 f, I7 A* i( wCodec ID                                 : A_DTS
    + X9 t' E) @! \6 d& ~1 L& MDuration                                 : 1 h 25 min( }( @6 |' }" Y- O
    Bit rate mode                            : Constant
    ! }% O  _: o& }& ~! f; oBit rate                                 : 1 509 kb/s
    7 ]& c. @3 M. `1 U/ ^Channel(s)                               : 2 channels
    7 n: Q, v3 p9 a- M; Z$ t0 DChannel positions                        : Front: L R5 W0 H5 l/ U4 [, L; }2 Z7 Q
    Sampling rate                            : 48.0 kHz
    : g4 j1 G" ~: y! [* c% hFrame rate                               : 93.750 FPS (512 SPF)% a4 h* p& L1 {+ ]7 {& Q
    Bit depth                                : 16 bits
    1 n: a1 k# o8 h0 a! ~4 uCompression mode                         : Lossy: O4 W1 ]" j4 T: U8 L
    Stream size                              : 918 MiB (12%)
    # A" R( B. `9 A5 U4 aTitle                                    : Jack.the.Ripper.1959.1080p.BluRay.x264.DTS-FGT
    2 @  P" p4 S4 [0 ULanguage                                 : English
    8 T/ @0 `- Q; `( }) sDefault                                  : Yes
    5 p; U: D+ z, s6 L, I) X' ^Forced                                   : No
    5 e4 d- f6 Y9 @6 L; n  N' W) Y5 A5 j/ u: e) v. i- |
    Menu2 h( J2 I) S! |
    00:00:00.000                             : en:Chapter 01, I% L/ e) p3 E" j1 ^5 ]$ |
    00:11:34.777                             : en:Chapter 02
    9 \# C* g) h' q0 e0 c5 c- }; b00:23:19.022                             : en:Chapter 03
    ! B! ~& D  p9 q5 z00:27:37.072                             : en:Chapter 04# h% M# e2 `* o5 Y( |
    00:44:48.310                             : en:Chapter 054 I) D' U$ K6 x; `0 X( N: x9 J
    00:55:37.625                             : en:Chapter 06' t5 V' z8 R9 {* j
    01:02:45.803                             : en:Chapter 07
    # a( _5 A  L( C) @) `01:23:56.072                             : en:Chapter 08
    $ r) l9 H2 C0 X! j0 r01:25:03.973                             : en:Chapter 09
    8 A9 V1 Z" o# [& T# X, g% ]

    5 Y9 j+ k0 g, g+ r, z+ p

    1 U% g' v7 N  T. |% r0 i0 e5 N
    6 S( g. ]1 n/ u! Y

    % }2 _( ?0 h7 [. a6 d
    7 p7 B% N. u( w  l
    6 N: R5 e1 s  M

    4 c$ U* \- g: [9 @. z1 _! S& ^
      W. ^+ P6 `) j

    本帖子中包含更多资源

    您需要 登录 才可以下载或查看,没有帐号?立即注册

    x
    回复

    使用道具 举报

  • TA的每日心情
    1
    2018-3-29 14:05
  • 签到天数: 14 天

    [LV.3]偶尔看看II

    发表于 2018-3-4 20:17:32 | 显示全部楼层
    thank you for your share
    回复 支持 反对

    使用道具 举报

  • TA的每日心情
    1
    2018-3-11 15:12
  • 签到天数: 7 天

    [LV.3]偶尔看看II

    发表于 2018-3-11 15:33:45 | 显示全部楼层
    就是有点太老了
    回复 支持 反对

    使用道具 举报

  • TA的每日心情
    1
    2018-11-26 22:27
  • 签到天数: 36 天

    [LV.5]常住居民I

    发表于 2018-4-20 22:09:27 | 显示全部楼层
    没有字幕吗?
    回复 支持 反对

    使用道具 举报

  • TA的每日心情
    1
    前天 20:25
  • 签到天数: 375 天

    [LV.9]以坛为家II

    发表于 2018-7-6 22:51:49 | 显示全部楼层
    世纪谜案,终难解答
    回复 支持 反对

    使用道具 举报

    您需要登录后才可以回帖 登录 | 立即注册

    本版积分规则

    QQ|广告友链合作联系QQ1820944494|小黑屋|威酷高清影视论坛

    GMT+8, 2018-12-11 18:59 , Processed in 0.017843 second(s), 12 queries , Gzip On, Redis On.

    Powered by Discuz! X3.4

    © 2001-2017 Comsenz Inc.

    快速回复 返回顶部 返回列表