威酷高清论坛

 找回密码
 立即注册

QQ登录

只需一步,快速开始

查看: 2006|回复: 3

[恐怖] 开膛手杰克 Jack.the.Ripper.1959.1080p.BluRay.x264.DTS-FGT 7.7GB

[复制链接]
  • TA的每日心情
    9
    2015-8-23 17:39
  • 签到天数: 124 天

    [LV.7]常住居民III

    发表于 2018-2-14 16:18:47 | 显示全部楼层 |阅读模式
    ◎译  名 开膛手杰克
    ◎片  名 Jack the Ripper
    ◎年  代 1959
    ◎产  地 英国
    ◎类  别 犯罪/恐怖/悬疑/惊悚
    ◎语  言 英语
    ◎上映日期 1959-03-28(英国)/1960-02-17(美国)
    ◎IMDb评分  6.2/10 from 458 users
    ◎片  长 84 分钟
    ◎导  演 罗伯特贝克 Robert S. Baker / Monty Berman
    ◎主  演 李·帕特森 Lee Patterson
          Eddie Byrne
          Betty McDowall
          Ewen Solon
          约翰·勒·梅苏里尔 John Le Mesurier

    0 `: D9 o: I# J1 b; X$ c2 r3 i# n5 A
    ◎简  介

    8 S+ [  D3 S2 v; f. {6 Q
      In 1888| Jack the Ripper is on his killing spree. Scotland Yard Inspector O'Neill is pleased to welcome to London his old friend Sam Lowry| a New York City detectivewho has come to visit him and is only too happy to help out with the case. Sam becomes attracted to Anne Ford| a modern woman for the age| but her guardian| Dr.Tranter doesn't quite approve. The good doctor also seems to be out when the Ripper murders occur. As the population edge ever loser to taking the law into their ownhands| the police slowly close in the killer.

    $ W% h" c+ G9 @) I" |
    0 C; A9 T1 ]* v4 J/ x/ B
    Video
    $ c4 |2 b  _4 R: Q8 O" ]ID                                       : 1
    1 A% V1 ?9 M0 \Format                                   : AVC
    * m( A* u% ~! {  J/ s' I: K; R1 V- P5 K3 GFormat/Info                              : Advanced Video Codec5 M, x5 V7 A5 S! ?' L* Z4 U' M
    Format profile                           : High@L4.1- ?8 A' b5 m6 z& W4 u, q" X: l$ X
    Format settings                          : CABAC / 4 Ref Frames
    & `9 q1 X; \% X) j$ B# \Format settings, CABAC                   : Yes
    + {: [0 c+ a& V0 h. |Format settings, ReFrames                : 4 frames( }, N7 F' e; o8 J6 }9 n8 B( U
    Codec ID                                 : V_MPEG4/ISO/AVC0 B9 I" b) \$ ]9 J9 b
    Duration                                 : 1 h 25 min, X# P$ B  O1 J- \7 s$ G* @
    Bit rate                                 : 11.5 Mb/s
    ( p) f; y& {6 o+ f0 V" sWidth                                    : 1 800 pixels. q+ W6 S- J6 Q; Z
    Height                                   : 1 080 pixels1 a7 R, E2 A3 x8 M9 l" @/ |! E5 @
    Display aspect ratio                     : 5:3
    3 A" B6 A0 K! A! s9 @2 Q) \/ s/ bFrame rate mode                          : Constant- i- p' M) V) b- Y
    Frame rate                               : 23.976 (24000/1001) FPS9 ]9 M) O* D# ^7 q  W2 f, b
    Color space                              : YUV% D5 [% E3 |% U. j
    Chroma subsampling                       : 4:2:0. s8 z) `( [6 n3 O
    Bit depth                                : 8 bits+ B" y  V2 E8 o1 P+ a
    Scan type                                : Progressive
    8 a5 \' p" t& H) PBits/(Pixel*Frame)                       : 0.247/ Z2 H' ^' Y& P% s; N1 O2 h' B
    Stream size                              : 6.82 GiB (88%)
    " M* y! L7 }- }( ZTitle                                    : Jack.the.Ripper.1959.1080p.BluRay.x264.DTS-FGT5 ^7 ~" N( F0 ]# ~( `- J
    Writing library                          : x264 core 148 r2795 aaa9aa8
    ) @2 T' m5 ]2 `* s8 `: C: W0 o1 tEncoding settings                        : cabac=1 / ref=4 / deblock=1:-2:-2 / analyse=0x3:0x113 / me=umh / subme=9 / psy=1 / psy_rd=1.00:0.15 / mixed_ref=1 / me_range=16 / chroma_me=1 / trellis=2 / 8x8dct=1 / cqm=0 / deadzone=21,11 / fast_pskip=1 / chroma_qp_offset=-3 / threads=24 / lookahead_threads=3 / sliced_threads=0 / nr=0 / decimate=1 / interlaced=0 / bluray_compat=0 / constrained_intra=0 / bframes=3 / b_pyramid=2 / b_adapt=2 / b_bias=0 / direct=3 / weightb=1 / open_gop=0 / weightp=2 / keyint=250 / keyint_min=25 / scenecut=40 / intra_refresh=0 / rc_lookahead=50 / rc=abr / mbtree=1 / bitrate=11500 / ratetol=1.0 / qcomp=0.60 / qpmin=0 / qpmax=69 / qpstep=4 / vbv_maxrate=31250 / vbv_bufsize=31250 / nal_hrd=none / filler=0 / ip_ratio=1.40 / aq=1:1.00
    0 s9 F+ X- _7 g( Y% m4 a+ ~; {; sLanguage                                 : English
    - T8 ~. _6 Y7 \- H8 Z7 GDefault                                  : Yes9 v6 Y" d1 w4 E0 z
    Forced                                   : No5 o' j8 h1 `2 Z3 K5 G% v9 R

    ; ^& z6 R, j& e9 }Audio
    7 S$ x4 t, f* mID                                       : 2, t5 ]( w0 c* C) M
    Format                                   : DTS
    2 Y+ G. P5 d$ r) H4 j0 pFormat/Info                              : Digital Theater Systems6 |4 Y/ l) }) a. N. e0 ~
    Codec ID                                 : A_DTS4 N: j0 _, A# s; M$ _
    Duration                                 : 1 h 25 min! G1 A9 V  y+ r
    Bit rate mode                            : Constant5 ?9 F2 E7 A/ _3 c
    Bit rate                                 : 1 509 kb/s
    " I2 v" P7 b8 x# P6 tChannel(s)                               : 2 channels+ v; _4 ^3 v0 U/ }$ z
    Channel positions                        : Front: L R5 {) V- L( X! [& ~
    Sampling rate                            : 48.0 kHz
    - G4 A5 K* k" W" }Frame rate                               : 93.750 FPS (512 SPF)' \+ X' p; ~9 B6 }* Z, Q$ A- v
    Bit depth                                : 16 bits
    8 F, ?  I0 \& o* R- _8 kCompression mode                         : Lossy& b. O- C1 ?3 x5 L; I. u
    Stream size                              : 918 MiB (12%)
    : r0 D- l: g5 ^& Y9 e2 v! RTitle                                    : Jack.the.Ripper.1959.1080p.BluRay.x264.DTS-FGT0 k7 m& X9 r/ I
    Language                                 : English9 a8 U/ E* t2 |; j. \  r
    Default                                  : Yes
    ( w+ v( M2 [6 N; }( E% W0 `  AForced                                   : No. F* U1 b% N" z& C4 N7 |1 w

    + V9 \; L" \' X# ^Menu
    / k  I" v+ V2 F6 C% ]1 C9 Y2 p( b00:00:00.000                             : en:Chapter 01( Z9 n; @' M9 F. @$ ~& \5 D
    00:11:34.777                             : en:Chapter 02$ }; \3 g! M! L7 m
    00:23:19.022                             : en:Chapter 03
    % m" Y6 |! S1 c" I( A$ j00:27:37.072                             : en:Chapter 04
    % e- U& S) l8 n/ p& Z6 f00:44:48.310                             : en:Chapter 05, t6 a6 f4 r- @) ~' O+ G
    00:55:37.625                             : en:Chapter 06+ I! n: @( ?9 S
    01:02:45.803                             : en:Chapter 07
    - R6 A+ ~2 \$ \01:23:56.072                             : en:Chapter 08( Y( E0 ]2 ]8 N% v& L7 _
    01:25:03.973                             : en:Chapter 095 Y9 o& N( H/ X

    9 U3 k) z% q' z+ k. o

    5 `9 I5 m; B6 v! j+ C( v& Y
      R8 I7 T7 ^  n: x: @

    - V- ?, v* ~% C+ u8 s" R9 y/ V$ U7 o8 t6 I/ {! ~% [
    # s9 x- K% k% Z3 `8 _4 N

    ) J: r" u7 _" o7 W
    8 M, Y/ x: ?: w8 l* H( N

    本帖子中包含更多资源

    您需要 登录 才可以下载或查看,没有帐号?立即注册

    x
    回复

    使用道具 举报

  • TA的每日心情
    1
    2018-3-29 14:05
  • 签到天数: 14 天

    [LV.3]偶尔看看II

    发表于 2018-3-4 20:17:32 | 显示全部楼层
    thank you for your share
    回复 支持 反对

    使用道具 举报

  • TA的每日心情
    1
    2018-3-11 15:12
  • 签到天数: 7 天

    [LV.3]偶尔看看II

    发表于 2018-3-11 15:33:45 | 显示全部楼层
    就是有点太老了
    回复 支持 反对

    使用道具 举报

  • TA的每日心情
    1
    昨天 23:00
  • 签到天数: 32 天

    [LV.5]常住居民I

    发表于 2018-4-20 22:09:27 | 显示全部楼层
    没有字幕吗?
    回复 支持 反对

    使用道具 举报

    您需要登录后才可以回帖 登录 | 立即注册

    本版积分规则

    QQ|小黑屋|威酷高清影视论坛

    GMT+8, 2018-6-22 03:31 , Processed in 0.016690 second(s), 13 queries , Gzip On, Redis On.

    Powered by Discuz! X3.4

    © 2001-2017 Comsenz Inc.

    快速回复 返回顶部 返回列表