威酷高清论坛

 找回密码
 立即注册

QQ登录

只需一步,快速开始

查看: 5985|回复: 8

[恐怖] 刑房的噩梦 Grindhouse.Nightmares.2017.1080p.WEB-DL.AAC2.0.H264-FGT 2.42GB

[复制链接]
  • TA的每日心情
    9
    2015-8-23 17:39
  • 签到天数: 124 天

    [LV.7]常住居民III

    发表于 2018-2-14 16:23:52 | 显示全部楼层 |阅读模式
    ◎译  名 刑房的噩梦
    ◎片  名 Grindhouse.Nightmares
    ◎年  代 2017
    ◎产  地 美国
    ◎类  别 恐怖
    ◎语  言 英语
    ◎IMDb评分  N/A
    ◎片  长 1h 15min
    ◎导  演 Richard Driscoll
    ◎主  演 Patrick Bergin
          Michael Madsen
          Steve Munroe ...        Sam Coex

    1 [9 E4 C- ?0 M2 s( B
    ◎简  介
    5 o; @& l. L  ^! z! ^' m% ^# ?
      Welcome to the Grindhouse experience like it was meant to be| killer story lines and themes zig zig across the screen in Grind-O-Vision| a nonstop thrill ride ofbabes| guns| muscle cars| motorcycle shoot outs| rendezvous with the devil and much more. From "Manhunt" to "Stripper with a Shotgun|" Grindhouse Nightmares iscinema exploitation at its best. Featuring Michael Madsen and the Queen of the Scream Queens| Linnea Quigley.
    ) f: i- f0 R8 }& P3 J) y) g: L& B1 @
    Video" p# |9 d, m: `
    ID                                       : 1
    " V' F' {  [/ c# x# {Format                                   : AVC0 S% U! H# w1 d/ t8 Z' b2 L
    Format/Info                              : Advanced Video Codec- r  ^8 F6 w& J( |, J
    Format profile                           : High@L4$ @: Z, V' s5 t7 T/ s/ y2 n( c
    Format settings                          : CABAC / 5 Ref Frames6 A# J3 K! k5 j7 D+ o  o% G/ W
    Format settings, CABAC                   : Yes
    8 A$ G1 ~% r, F% \( L: b/ EFormat settings, ReFrames                : 5 frames1 K+ ~  w# k$ v( z. [+ j  z
    Codec ID                                 : V_MPEG4/ISO/AVC( o7 s  ~: `* t5 r# m% g+ [4 X  _
    Duration                                 : 1 h 13 min
    & ]0 Y$ a/ A% ~, Z- ^Bit rate                                 : 4 579 kb/s* {/ G0 Z( s+ E6 \  C" K% m; f
    Width                                    : 1 892 pixels
    & b* y0 m# \, F- m& g0 dHeight                                   : 792 pixels
    6 e& w6 H/ {5 N' M3 F3 d+ w* y5 SDisplay aspect ratio                     : 2.40:17 ]/ D6 i1 f/ t8 n% u  a5 [7 Y: M
    Frame rate mode                          : Constant+ P1 }2 ?1 {4 ~& Y8 C: ^
    Frame rate                               : 23.976 (23976/1000) FPS* `% ]7 n3 y4 C
    Color space                              : YUV, n+ R8 e3 V' l+ E! H
    Chroma subsampling                       : 4:2:0( a0 P7 L- Q4 m/ p# E  V
    Bit depth                                : 8 bits
    1 e9 _' o) X( p5 J/ mScan type                                : Progressive: R2 g( Z: H' U( v8 u
    Bits/(Pixel*Frame)                       : 0.127* h* A' c+ _% B  \  B  f
    Stream size                              : 2.36 GiB (98%)$ p& s1 s) y  M# X) O8 @4 N5 {9 i
    Title                                    : Grindhouse.Nightmares.2017.1080p.WEB-DL.AAC2.0.H264-FGT
    1 E9 k" d4 u. J3 yLanguage                                 : English6 s: V8 `% K9 Z+ z- g  @
    Default                                  : Yes0 o" o1 |% F% ^
    Forced                                   : No9 a# b) S! w/ y" t
    Color range                              : Limited$ }* f8 w( ?, N7 o1 z. `5 C$ X2 G
    Color primaries                          : BT.709- S6 o: m9 y: {* d* l% |' P
    Transfer characteristics                 : BT.709# \7 l1 Z0 m3 Y- `, s
    Matrix coefficients                      : BT.709
    8 Y/ Q8 a5 m: l; b* {) S" T
    / f6 G, y, L5 [+ C# y4 HAudio8 ~9 b; m4 k0 Y* a. h5 C
    ID                                       : 2" n! L( l+ M/ y" V: q( C: g4 d
    Format                                   : AAC
    % C! f2 y: k- rFormat/Info                              : Advanced Audio Codec' R. T* K5 _7 M! Y$ O; l
    Format profile                           : LC
    " t$ x8 Y& y" H% A: ECodec ID                                 : A_AAC-2$ K9 [1 i3 u# i4 T- I
    Duration                                 : 1 h 13 min
    6 r# V1 ^! P! m% T( nBit rate                                 : 104 kb/s
    ' u8 A/ o# P! u. c) F# dChannel(s)                               : 2 channels. l8 p) [) k3 W. O
    Channel positions                        : Front: L R
    . _$ @) H* t0 B( \5 {8 mSampling rate                            : 48.0 kHz. [5 ?8 ~0 g+ O) @$ g& V
    Frame rate                               : 46.875 FPS (1024 SPF)
    5 Y. l$ g' g/ i3 ZCompression mode                         : Lossy
    5 Q: A' {+ l% w6 pDelay relative to video                  : -42 ms/ B8 Y0 f( {2 [$ l7 ^; M8 c
    Stream size                              : 54.7 MiB (2%)" e3 ^* r' z! }; b2 k
    Title                                    : Grindhouse.Nightmares.2017.1080p.WEB-DL.AAC2.0.H264-FGT
    ' n% b6 @9 ^: D' E( C# _7 u) mLanguage                                 : English( G1 [* E6 v$ @/ A+ L, v! e
    Default                                  : Yes
    0 s. q( l1 h1 T6 [* ?6 I; AForced                                   : No
    , B4 E# @3 [8 f- G' x, m1 ]: ~) c3 c* Y* T* {$ r- v
    Menu4 y- v8 x; {: W  N4 @+ s% Q
    00:00:00.000                             : en:Chapter 1
    5 S% c% h) ?5 j4 n' S3 ~, J) C00:10:00.600                             : en:Chapter 2& y) C4 b: ?* J* k4 D+ A+ C; M
    00:20:01.200                             : en:Chapter 3) y+ u9 K) f( V/ S; N" A$ J
    00:30:01.800                             : en:Chapter 4
    ! r  I& ]! o2 P. F00:40:02.400                             : en:Chapter 50 N& Z$ J$ {( _1 C3 Y, V
    00:50:03.000                             : en:Chapter 6
    ; t5 |1 x# g" U8 h1 }01:00:03.600                             : en:Chapter 7( J% r8 _- F1 e& |/ l1 k4 Z
    01:10:04.200                             : en:Chapter 8
    - S0 Z- ?5 B/ c3 R' \* p; a

    7 \' d6 A$ F2 h0 A3 E

    5 `. M5 y; G+ Y* j" C& o) {
    ( k2 K. g1 X9 s3 Y# E& F  T" g
    0 m8 ~1 R9 ~' ~8 {' k
      K7 f  f" S4 D( |) V" o8 Z4 K
    0 F3 e* @, a8 Z1 w/ v% ]. K+ D/ V

      g/ ]" E7 l# n& O7 ^7 u' Y+ |% Y) }! v1 P

    本帖子中包含更多资源

    您需要 登录 才可以下载或查看,没有帐号?立即注册

    x
    回复

    使用道具 举报

  • TA的每日心情
    1
    昨天 09:53
  • 签到天数: 466 天

    [LV.9]以坛为家II

    发表于 2018-2-18 09:12:18 | 显示全部楼层
    谢谢楼主分享!!!!!
    回复 支持 反对

    使用道具 举报

  • TA的每日心情
    9
    2018-5-24 22:03
  • 签到天数: 79 天

    [LV.6]常住居民II

    发表于 2018-2-22 16:54:16 | 显示全部楼层
    谢谢楼主,下了
    回复 支持 反对

    使用道具 举报

  • TA的每日心情
    1
    2018-10-20 10:34
  • 签到天数: 81 天

    [LV.6]常住居民II

    发表于 2018-2-25 14:07:30 | 显示全部楼层
    谢谢楼主,下了
    回复 支持 反对

    使用道具 举报

  • TA的每日心情
    1
    2018-3-29 14:05
  • 签到天数: 14 天

    [LV.3]偶尔看看II

    发表于 2018-3-4 20:16:45 | 显示全部楼层
    thank you for your share
    回复 支持 反对

    使用道具 举报

  • TA的每日心情
    7
    2018-6-16 14:26
  • 签到天数: 38 天

    [LV.5]常住居民I

    发表于 2018-3-16 23:09:07 | 显示全部楼层
             谢谢资源         
    回复 支持 反对

    使用道具 举报

  • TA的每日心情
    7
    2018-6-16 14:26
  • 签到天数: 38 天

    [LV.5]常住居民I

    发表于 2018-4-22 23:39:37 | 显示全部楼层
    谢谢分享            
    回复 支持 反对

    使用道具 举报

  • TA的每日心情
    1
    2 小时前
  • 签到天数: 360 天

    [LV.8]以坛为家I

    发表于 2018-5-12 18:11:30 | 显示全部楼层
    姐姐风格比较直率,姐夫风格比较儒雅温和,俩人今年下半年准备结婚了。一日,姐夫喝高了,我和姐姐把他拖回家,姐夫躺床上,突然坐起来,迷迷糊糊滴抓起我姐的手,我姐想着吧,这是要酒后吐真言啊,来个表白啥的,暗喜ing,只听我姐夫说:“那个,结婚以后你别打我和孩子啊~~”我姐顿时风中凌乱了……你个窝囊废!
    回复 支持 反对

    使用道具 举报

  • TA的每日心情
    1
    昨天 22:20
  • 签到天数: 376 天

    [LV.9]以坛为家II

    发表于 2018-7-6 22:50:55 | 显示全部楼层
    美式恐怖风格不错!
    回复 支持 反对

    使用道具 举报

    您需要登录后才可以回帖 登录 | 立即注册

    本版积分规则

    QQ|广告友链合作联系QQ1820944494|小黑屋|威酷高清影视论坛

    GMT+8, 2018-12-14 02:43 , Processed in 0.020010 second(s), 11 queries , Gzip On, Redis On.

    Powered by Discuz! X3.4

    © 2001-2017 Comsenz Inc.

    快速回复 返回顶部 返回列表