威酷高清论坛

 找回密码
 立即注册

QQ登录

只需一步,快速开始

查看: 5584|回复: 7

[恐怖] 刑房的噩梦 Grindhouse.Nightmares.2017.1080p.WEB-DL.AAC2.0.H264-FGT 2.42GB

[复制链接]
  • TA的每日心情
    9
    2015-8-23 17:39
  • 签到天数: 124 天

    [LV.7]常住居民III

    发表于 2018-2-14 16:23:52 | 显示全部楼层 |阅读模式
    ◎译  名 刑房的噩梦
    ◎片  名 Grindhouse.Nightmares
    ◎年  代 2017
    ◎产  地 美国
    ◎类  别 恐怖
    ◎语  言 英语
    ◎IMDb评分  N/A
    ◎片  长 1h 15min
    ◎导  演 Richard Driscoll
    ◎主  演 Patrick Bergin
          Michael Madsen
          Steve Munroe ...        Sam Coex

    + ^' T) G: ~3 c9 `8 I0 l) o- M
    ◎简  介

    6 _4 O' P. ]6 g/ R- G
      Welcome to the Grindhouse experience like it was meant to be| killer story lines and themes zig zig across the screen in Grind-O-Vision| a nonstop thrill ride ofbabes| guns| muscle cars| motorcycle shoot outs| rendezvous with the devil and much more. From "Manhunt" to "Stripper with a Shotgun|" Grindhouse Nightmares iscinema exploitation at its best. Featuring Michael Madsen and the Queen of the Scream Queens| Linnea Quigley.

    6 u1 ~2 i# A' W- j+ }  l
    Video
    3 x) T3 W% z: O1 p. d% D1 }ID                                       : 1
    . M8 p( b( f0 K& |Format                                   : AVC
    9 y) J5 |  B- h1 n% ]3 EFormat/Info                              : Advanced Video Codec
    0 X2 B) V% ^$ J% l4 r( s/ ]Format profile                           : High@L4
    3 O8 T% [' {" o: T8 SFormat settings                          : CABAC / 5 Ref Frames
    % W% F3 `9 f2 Y% a# B' ~' b2 P$ gFormat settings, CABAC                   : Yes: l: V& T2 {8 i6 _! j7 D: O+ H2 F
    Format settings, ReFrames                : 5 frames/ @' d3 s5 @& h9 ]
    Codec ID                                 : V_MPEG4/ISO/AVC
    - N' \( Q! T7 i- P- JDuration                                 : 1 h 13 min
    / C- [& t) g, r# f; |Bit rate                                 : 4 579 kb/s- G/ Y, D# {5 M# ]$ h
    Width                                    : 1 892 pixels
    : |" Z; R7 l- N6 A9 V! V; NHeight                                   : 792 pixels$ r- K# C' C* s$ u  l1 o2 g2 c
    Display aspect ratio                     : 2.40:1
    . U$ x! l4 o6 X) A2 d2 ZFrame rate mode                          : Constant  b8 W) h6 r$ I6 h; W4 Y
    Frame rate                               : 23.976 (23976/1000) FPS9 ]! h" u  B* e' A5 L
    Color space                              : YUV5 a- p- u1 n, c1 q' \& E" `
    Chroma subsampling                       : 4:2:06 l/ s- G& V! J. s. p% F' j
    Bit depth                                : 8 bits
    * c( R1 p# m8 p6 VScan type                                : Progressive/ \$ c! @  y. A
    Bits/(Pixel*Frame)                       : 0.127; _" {) i* R1 O& |! O
    Stream size                              : 2.36 GiB (98%)
    : Y, S/ X3 \) O* x8 D( m4 y4 GTitle                                    : Grindhouse.Nightmares.2017.1080p.WEB-DL.AAC2.0.H264-FGT% t/ [' [$ h9 y% h. z# ]" O) m
    Language                                 : English
    0 e; a# Z  i) x8 a* A# g. X2 S4 [3 W3 aDefault                                  : Yes
    # i& g" O: Q, ]8 `+ fForced                                   : No
    ( ^* Q0 H0 ^( R" h4 BColor range                              : Limited0 l  }6 @  t* g+ p, L3 J
    Color primaries                          : BT.709$ G* J! a& n0 V8 }, w
    Transfer characteristics                 : BT.7093 J! D9 b+ I1 v6 w5 Q
    Matrix coefficients                      : BT.709
    " R' V2 t% M$ d" ~) k5 M: P  v- P3 b
    ( d0 I4 t; H" q. mAudio
    8 v. z# @9 J# T0 U& Z) e& i$ KID                                       : 2
    ' E' W. J! L# k* q9 Q) ?5 Z7 f+ sFormat                                   : AAC
    ( z: l9 L8 V) N4 HFormat/Info                              : Advanced Audio Codec; ]/ h4 O, s- j) R0 v
    Format profile                           : LC0 M$ e$ e0 G) M' t5 ?
    Codec ID                                 : A_AAC-2* \  A+ ~2 x; q
    Duration                                 : 1 h 13 min# o9 i. l% u$ N- b! |% v
    Bit rate                                 : 104 kb/s
    & o. V4 U5 z$ R" x' B9 m$ ZChannel(s)                               : 2 channels: e. z( b- V( X, N
    Channel positions                        : Front: L R
    : R$ V5 t& n+ u4 @- j. y" A+ ^2 QSampling rate                            : 48.0 kHz; K1 k& y4 F' i6 B5 v$ z
    Frame rate                               : 46.875 FPS (1024 SPF)
    ' ?5 {, z' Q# m* Z* jCompression mode                         : Lossy
    6 G5 O9 U$ j8 ~% \5 \& iDelay relative to video                  : -42 ms; s5 \" L$ `' c8 r5 h
    Stream size                              : 54.7 MiB (2%)
    ( C$ |" v7 L; [; M6 Q8 nTitle                                    : Grindhouse.Nightmares.2017.1080p.WEB-DL.AAC2.0.H264-FGT
    . N. l) A8 U5 q& Y: KLanguage                                 : English
    ; k) p: f! b/ ?) d6 {* BDefault                                  : Yes
    9 T" b- c- E; z! [! Y, _& D. q' fForced                                   : No* s7 d# Y! Q4 l2 C

    * D# @2 V4 Q2 V" b0 XMenu7 S! u2 g8 L! [" }& B5 g2 ~1 a% E
    00:00:00.000                             : en:Chapter 1
    ' {% C  t$ P' C* G00:10:00.600                             : en:Chapter 2
    ( s- Z6 l* R! r4 t00:20:01.200                             : en:Chapter 3
    4 q* l9 F% ~5 i7 a5 \) R00:30:01.800                             : en:Chapter 40 f+ t9 l9 s, m
    00:40:02.400                             : en:Chapter 5
    8 W* ^' h" I1 H4 ^% T00:50:03.000                             : en:Chapter 6& f; a. p( t- J+ O2 B: `
    01:00:03.600                             : en:Chapter 7
    8 K4 \* p8 }. s01:10:04.200                             : en:Chapter 8
    ' o* Y  Z* L2 q! m7 ?' J( d
    ! O, Z+ M# l' J% r7 L4 q/ l
    5 K! I% ]. e* _( K
    " [' @) A7 `8 |8 G6 G

    # F5 B% B8 o5 ^. @6 E
    # a, h2 b* c. y
    0 z9 M8 L  ?7 Y- q5 `
    ) S  y' j% }) q' c* J1 S

      H+ s' Z1 n8 A# `0 W& ?

    本帖子中包含更多资源

    您需要 登录 才可以下载或查看,没有帐号?立即注册

    x
    回复

    使用道具 举报

  • TA的每日心情
    1
    昨天 13:28
  • 签到天数: 344 天

    [LV.8]以坛为家I

    发表于 2018-2-18 09:12:18 | 显示全部楼层
    谢谢楼主分享!!!!!
    回复 支持 反对

    使用道具 举报

  • TA的每日心情
    9
    2018-5-24 22:03
  • 签到天数: 79 天

    [LV.6]常住居民II

    发表于 2018-2-22 16:54:16 | 显示全部楼层
    谢谢楼主,下了
    回复 支持 反对

    使用道具 举报

  • TA的每日心情
    1
    2018-5-11 08:27
  • 签到天数: 69 天

    [LV.6]常住居民II

    发表于 2018-2-25 14:07:30 | 显示全部楼层
    谢谢楼主,下了
    回复 支持 反对

    使用道具 举报

  • TA的每日心情
    1
    2018-3-29 14:05
  • 签到天数: 14 天

    [LV.3]偶尔看看II

    发表于 2018-3-4 20:16:45 | 显示全部楼层
    thank you for your share
    回复 支持 反对

    使用道具 举报

  • TA的每日心情
    7
    6 天前
  • 签到天数: 38 天

    [LV.5]常住居民I

    发表于 2018-3-16 23:09:07 | 显示全部楼层
             谢谢资源         
    回复 支持 反对

    使用道具 举报

  • TA的每日心情
    7
    6 天前
  • 签到天数: 38 天

    [LV.5]常住居民I

    发表于 2018-4-22 23:39:37 | 显示全部楼层
    谢谢分享            
    回复 支持 反对

    使用道具 举报

  • TA的每日心情
    1
    3 小时前
  • 签到天数: 188 天

    [LV.7]常住居民III

    发表于 2018-5-12 18:11:30 | 显示全部楼层
    姐姐风格比较直率,姐夫风格比较儒雅温和,俩人今年下半年准备结婚了。一日,姐夫喝高了,我和姐姐把他拖回家,姐夫躺床上,突然坐起来,迷迷糊糊滴抓起我姐的手,我姐想着吧,这是要酒后吐真言啊,来个表白啥的,暗喜ing,只听我姐夫说:“那个,结婚以后你别打我和孩子啊~~”我姐顿时风中凌乱了……你个窝囊废!
    回复 支持 反对

    使用道具 举报

    您需要登录后才可以回帖 登录 | 立即注册

    本版积分规则

    QQ|小黑屋|威酷高清影视论坛

    GMT+8, 2018-6-22 03:34 , Processed in 0.015944 second(s), 11 queries , Gzip On, Redis On.

    Powered by Discuz! X3.4

    © 2001-2017 Comsenz Inc.

    快速回复 返回顶部 返回列表