威酷高清论坛

 找回密码
 立即注册

QQ登录

只需一步,快速开始

查看: 5847|回复: 8

[恐怖] 刑房的噩梦 Grindhouse.Nightmares.2017.1080p.WEB-DL.AAC2.0.H264-FGT 2.42GB

[复制链接]
  • TA的每日心情
    9
    2015-8-23 17:39
  • 签到天数: 124 天

    [LV.7]常住居民III

    发表于 2018-2-14 16:23:52 | 显示全部楼层 |阅读模式
    ◎译  名 刑房的噩梦
    ◎片  名 Grindhouse.Nightmares
    ◎年  代 2017
    ◎产  地 美国
    ◎类  别 恐怖
    ◎语  言 英语
    ◎IMDb评分  N/A
    ◎片  长 1h 15min
    ◎导  演 Richard Driscoll
    ◎主  演 Patrick Bergin
          Michael Madsen
          Steve Munroe ...        Sam Coex

    2 e8 E0 K; J; C
    ◎简  介

    7 r* G$ n8 ~" q# I: Z
      Welcome to the Grindhouse experience like it was meant to be| killer story lines and themes zig zig across the screen in Grind-O-Vision| a nonstop thrill ride ofbabes| guns| muscle cars| motorcycle shoot outs| rendezvous with the devil and much more. From "Manhunt" to "Stripper with a Shotgun|" Grindhouse Nightmares iscinema exploitation at its best. Featuring Michael Madsen and the Queen of the Scream Queens| Linnea Quigley.

    : U6 M  D* w5 W# v% ?) Y- a5 l  m
    Video# ~1 [. u* s8 \( q9 N
    ID                                       : 1
    & I5 |& H2 _2 K. a4 J/ W, nFormat                                   : AVC$ P! l& b$ ^) d+ @& `1 v2 A8 s
    Format/Info                              : Advanced Video Codec
    9 P+ g. N0 Q( L2 {, jFormat profile                           : High@L4
      ~: M) r7 f8 T8 p2 ^Format settings                          : CABAC / 5 Ref Frames
    & v! N6 M3 n& f+ P& R0 P7 R+ ZFormat settings, CABAC                   : Yes
    & X, d/ X5 s# eFormat settings, ReFrames                : 5 frames
    / E% I" p: T& N1 G$ ]- vCodec ID                                 : V_MPEG4/ISO/AVC0 Q1 j, c. b7 m3 b
    Duration                                 : 1 h 13 min) m" G) R; P$ H3 C
    Bit rate                                 : 4 579 kb/s
    2 d* n" x2 h1 j; ~* cWidth                                    : 1 892 pixels
    8 V5 h) b4 Y9 G( U0 BHeight                                   : 792 pixels% ]5 B7 y# e8 f" S" I
    Display aspect ratio                     : 2.40:1
    : ~8 p0 I- _$ c6 k4 A  YFrame rate mode                          : Constant+ F6 w/ m+ x% S2 q& ^( O& }
    Frame rate                               : 23.976 (23976/1000) FPS
    1 z/ ~& V/ n: u2 c7 ?$ pColor space                              : YUV/ D1 a0 z+ e0 X8 M0 B
    Chroma subsampling                       : 4:2:04 L. [7 t$ ?% \, I5 j" m( k
    Bit depth                                : 8 bits
      n' C. Z5 n! A( f1 eScan type                                : Progressive
    * A) C) p, X1 ^" Y7 z  IBits/(Pixel*Frame)                       : 0.127
    2 T1 `# @6 P: E0 l! n# mStream size                              : 2.36 GiB (98%), A) A; R. W. L  L/ A( F) M
    Title                                    : Grindhouse.Nightmares.2017.1080p.WEB-DL.AAC2.0.H264-FGT$ J  u8 {7 n5 _3 ~! ?
    Language                                 : English/ E/ _* W" z0 B, I
    Default                                  : Yes
    % ~- S3 \0 D& {9 z# [: t+ XForced                                   : No
    - q% {7 [' |( ?8 O3 ]. bColor range                              : Limited
    4 p& Z. @, t' b6 mColor primaries                          : BT.709! I4 m! R% k4 o' z5 u
    Transfer characteristics                 : BT.709/ L2 z& J/ g* f- Z% p
    Matrix coefficients                      : BT.709
    9 Z1 T% l( s/ ~  D" X- }2 `, S: N$ S2 ~& @+ {, H4 a
    Audio
      `* U+ ^) a: P. fID                                       : 2* r, D/ M4 u) `0 N
    Format                                   : AAC! p8 [8 X/ q2 L) Q: t  l
    Format/Info                              : Advanced Audio Codec- A$ l0 T" N+ n; O
    Format profile                           : LC; @3 g; r8 E. _7 O& F: b
    Codec ID                                 : A_AAC-2
    # a( e3 [3 _7 s' q; O' ADuration                                 : 1 h 13 min
    , Y( }" e, p; C" D0 mBit rate                                 : 104 kb/s
    # g6 `) S) ?8 {1 d) hChannel(s)                               : 2 channels# |- @' f% W' o9 B/ U
    Channel positions                        : Front: L R+ l. [9 H  @/ ^, |% ^
    Sampling rate                            : 48.0 kHz/ H- q& I5 H. K9 s, z2 C: d
    Frame rate                               : 46.875 FPS (1024 SPF)/ h& ^: B# l( }) Z; y
    Compression mode                         : Lossy7 Y! r* v' z  @9 `$ H
    Delay relative to video                  : -42 ms! P$ K4 D7 o3 f- O8 o9 x' q( o7 {/ q( C
    Stream size                              : 54.7 MiB (2%)
    7 T$ t. w8 V! t! `: qTitle                                    : Grindhouse.Nightmares.2017.1080p.WEB-DL.AAC2.0.H264-FGT
    & F* _% t0 S/ i4 c- v; yLanguage                                 : English  b" j) M( q6 x! h
    Default                                  : Yes) c7 ]1 u' w) [/ J9 b
    Forced                                   : No+ N' q3 C8 g2 c$ T# t$ j% p

    , X* r0 `6 ?7 e3 q! `Menu
    . ^0 w* p8 q0 K. E: K00:00:00.000                             : en:Chapter 1
    0 H1 t" T$ u+ D* M7 q6 C! W00:10:00.600                             : en:Chapter 2
    ) y0 u* U7 ], R& j% @" R00:20:01.200                             : en:Chapter 3
    & X7 y# n! J& O6 F00:30:01.800                             : en:Chapter 4
    9 G: K; ^+ }4 Z00:40:02.400                             : en:Chapter 5
    # ~* |1 d' |- u+ O, M# i. Q00:50:03.000                             : en:Chapter 6
    ) d1 ]9 S' D* i; e! i01:00:03.600                             : en:Chapter 7
    # Z) @8 n5 y! x' B& U! p01:10:04.200                             : en:Chapter 8
      p% k" W5 Q  X: h* a) c" K
    % V7 K. R& x$ t
    5 F: d5 t8 H/ u* p: ~, ^# m
    * k( F4 C* p1 U" u5 x5 Q$ [

    , E8 Q1 D5 K" S6 q& z5 W! p/ ]7 K4 l2 d) F* }' B
    3 ^8 _7 Q8 u, U3 m9 |, _$ a! C5 o

    , ]# `6 I( g% k
    9 X, Y4 A3 a# O9 c) Q

    本帖子中包含更多资源

    您需要 登录 才可以下载或查看,没有帐号?立即注册

    x
    回复

    使用道具 举报

  • TA的每日心情
    1
    昨天 08:00
  • 签到天数: 413 天

    [LV.9]以坛为家II

    发表于 2018-2-18 09:12:18 | 显示全部楼层
    谢谢楼主分享!!!!!
    回复 支持 反对

    使用道具 举报

  • TA的每日心情
    9
    2018-5-24 22:03
  • 签到天数: 79 天

    [LV.6]常住居民II

    发表于 2018-2-22 16:54:16 | 显示全部楼层
    谢谢楼主,下了
    回复 支持 反对

    使用道具 举报

  • TA的每日心情
    1
    3 天前
  • 签到天数: 78 天

    [LV.6]常住居民II

    发表于 2018-2-25 14:07:30 | 显示全部楼层
    谢谢楼主,下了
    回复 支持 反对

    使用道具 举报

  • TA的每日心情
    1
    2018-3-29 14:05
  • 签到天数: 14 天

    [LV.3]偶尔看看II

    发表于 2018-3-4 20:16:45 | 显示全部楼层
    thank you for your share
    回复 支持 反对

    使用道具 举报

  • TA的每日心情
    7
    2018-6-16 14:26
  • 签到天数: 38 天

    [LV.5]常住居民I

    发表于 2018-3-16 23:09:07 | 显示全部楼层
             谢谢资源         
    回复 支持 反对

    使用道具 举报

  • TA的每日心情
    7
    2018-6-16 14:26
  • 签到天数: 38 天

    [LV.5]常住居民I

    发表于 2018-4-22 23:39:37 | 显示全部楼层
    谢谢分享            
    回复 支持 反对

    使用道具 举报

  • TA的每日心情
    1
    昨天 07:33
  • 签到天数: 278 天

    [LV.8]以坛为家I

    发表于 2018-5-12 18:11:30 | 显示全部楼层
    姐姐风格比较直率,姐夫风格比较儒雅温和,俩人今年下半年准备结婚了。一日,姐夫喝高了,我和姐姐把他拖回家,姐夫躺床上,突然坐起来,迷迷糊糊滴抓起我姐的手,我姐想着吧,这是要酒后吐真言啊,来个表白啥的,暗喜ing,只听我姐夫说:“那个,结婚以后你别打我和孩子啊~~”我姐顿时风中凌乱了……你个窝囊废!
    回复 支持 反对

    使用道具 举报

  • TA的每日心情
    1
    2018-8-26 21:35
  • 签到天数: 366 天

    [LV.9]以坛为家II

    发表于 2018-7-6 22:50:55 | 显示全部楼层
    美式恐怖风格不错!
    回复 支持 反对

    使用道具 举报

    您需要登录后才可以回帖 登录 | 立即注册

    本版积分规则

    QQ|广告友链合作联系QQ1820944494|小黑屋|威酷高清影视论坛

    GMT+8, 2018-9-22 04:05 , Processed in 0.017547 second(s), 11 queries , Gzip On, Redis On.

    Powered by Discuz! X3.4

    © 2001-2017 Comsenz Inc.

    快速回复 返回顶部 返回列表