威酷高清论坛

 找回密码
 立即注册

QQ登录

只需一步,快速开始

查看: 156|回复: 2

[动作] 英雄 Hero.2002.1080p.Bluray.x264-BRMP 7.93GB

[复制链接]
  • TA的每日心情
    9
    2015-8-23 17:39
  • 签到天数: 124 天

    [LV.7]常住居民III

    发表于 2016-12-17 19:00:46 | 显示全部楼层 |阅读模式
    ◎译  名 Hero
    ◎片  名 英雄
    ◎年  代 2002
    ◎国  家 中国大陆/香港
    ◎类  别 剧情/动作/武侠/古装
    ◎语  言 汉语普通话
    ◎上映日期 2002-12-19(中国大陆/香港)
    ◎IMDb评分  7.9/10 from 151,684 users
    ◎豆瓣评分 6.7/10 from 114,132 users
    ◎片  长 93分钟(中国大陆)/99 分钟/110分钟(导演剪辑版)
    ◎导  演 张艺谋 Yimou Zhang
    ◎主  演 李连杰 Jet Li
          梁朝伟 Tony Leung Chiu Wai
          张曼玉 Maggie Cheung
          陈道明 Daoming Chen
          甄子丹 Donnie Yen
          章子怡 Ziyi Zhang
    5 U! k- Z) a1 a9 B( ^
    ◎简  介

    ; C. d" R3 p8 n# \  N' [# H2 Z
      战国末期,燕、赵、楚、韩、魏、齐、秦七雄并起,惟秦国最为强大,急欲吞并六国一统天下,秦王(陈道明)因此成为六国大敌,各地不同的刺秦故事一直在上演,其中赵国刺客残剑(梁朝伟)、飞雪(张曼玉)、如月(章子怡)、长空(甄子丹)因名震天下的高超剑术,令秦王十年里没睡过一个安稳觉。
      某日闻得残剑等人已被名叫无名(李连杰)的秦国剑客杀死,秦王大喜急召其上殿相见,却也谨慎小心以防有诈,秦王和无名斗智斗勇的较量遂即展开。
    0 x% [0 O0 A( p8 u
    ◎获奖情况

    9 g5 ^, M4 L9 h/ k" A8 ?' e8 ?
      第75届奥斯卡金像奖  (2003)
      最佳外语片(提名) 张艺谋
    ! S# b! p8 v! v/ T4 D/ @! p4 H8 Y/ a
      第22届香港电影金像奖  (2003)
      最佳电影(提名)
      最佳导演(提名) 张艺谋
      最佳编剧(提名) 王斌 / 张艺谋 / 李冯
      最佳女主角(提名) 张曼玉
      最佳女配角(提名) 章子怡
      最佳摄影 杜可风
      最佳剪接(提名) 林安儿 / 翟茹
      最佳美术指导 易振洲 / 霍廷霄
      最佳服装造型设计 和田惠美
      最佳动作设计 程小东
      最佳原创电影音乐 谭盾
      最佳原创电影歌曲(提名) 王菲
      最佳音响效果 陶经
      最佳视觉效果 Christopher Horvath / Murray Pope / Jonathan Rothbart / 潘国瑜
    / P; e: e. J/ m4 Z7 H
      第23届中国电影金鸡奖  (2003)
      最佳导演 张艺谋
      最佳合拍片
      最佳美术 易振洲 / 霍廷霄
      最佳录音 陶经
    1. ) T# s3 N$ ?- R9 F
    2. Video
      4 R0 S4 G# j! ?4 U' v
    3. ID                                       : 1+ s. w( Q( }; c+ D
    4. Format                                   : AVC
      % d* k; b# r$ M2 R" |
    5. Format/Info                              : Advanced Video Codec; q: j  U$ k, u
    6. Format profile                           : High@L4.1
      + K1 x4 t- D: L0 ?9 ]) D9 k: d9 r
    7. Format settings, CABAC                   : Yes! p" c3 N2 N" p  Y
    8. Format settings, ReFrames                : 5 frames
      + I4 J6 P- _( j- _9 f
    9. Codec ID                                 : V_MPEG4/ISO/AVC. H+ J! h( b5 s, M9 j
    10. Duration                                 : 1h 39mn
      4 n0 P0 S* _2 u2 {
    11. Bit rate                                 : 9 946 Kbps% {% M  M# e% ^3 U" L
    12. Width                                    : 1 920 pixels
      8 e/ D1 n( N9 t- J5 ]' A
    13. Height                                   : 824 pixels
      : f+ f: I. r/ V! i$ a6 n
    14. Display aspect ratio                     : 2.35:1
      , s4 U$ v: O" C/ |+ N6 V$ t
    15. Frame rate mode                          : Constant
      % s  e' o# w; [8 U
    16. Frame rate                               : 23.976 fps% b8 f5 H( C1 H5 u' I! }  {
    17. Color space                              : YUV. A8 V" \9 X& ^, c7 X1 D
    18. Chroma subsampling                       : 4:2:07 U4 ^- G. e7 u1 j. L
    19. Bit depth                                : 8 bits, g& M2 X5 J; l( |1 ^5 d& Z
    20. Scan type                                : Progressive- ~' q" U, W7 j; k8 F# Z! |$ e
    21. Bits/(Pixel*Frame)                       : 0.2629 Q7 @2 y& {# V0 \/ }
    22. Stream size                              : 6.72 GiB (85%)- r$ e" J, p: [; n' q" M
    23. Writing library                          : x264 core 98 r1649 20cbe10
      5 s# P7 f- n. F8 Z: ]  D: {; `% ?
    24. Encoding settings                        : cabac=1 / ref=5 / deblock=1:0:0 / analyse=0x3:0x133 / me=umh / subme=7 / psy=1 / psy_rd=1.00:0.00 / mixed_ref=1 / me_range=16 / chroma_me=1 / trellis=1 / 8x8dct=1 / cqm=0 / deadzone=21,11 / fast_pskip=0 / chroma_qp_offset=-2 / threads=12 / sliced_threads=0 / nr=0 / decimate=1 / interlaced=0 / constrained_intra=0 / bframes=3 / b_pyramid=2 / b_adapt=1 / b_bias=0 / direct=1 / weightb=1 / weightp=2 / keyint=250 / keyint_min=25 / scenecut=40 / intra_refresh=0 / rc_lookahead=40 / rc=2pass / mbtree=1 / bitrate=9946 / ratetol=1.0 / qcomp=0.60 / qpmin=10 / qpmax=51 / qpstep=4 / cplxblur=20.0 / qblur=0.5 / ip_ratio=1.40 / aq=1:1.00
      5 P, i9 O7 C! v0 P5 Y4 m% |' V
    25. Language                                 : English
      ) @: U" p0 s$ |3 F
    26. Default                                  : No9 O6 ?+ `/ X% h
    27. Forced                                   : No
      ' G3 y3 L+ y0 P( u
    28. 9 n0 v' I- o( h* v) c/ ^
    29. Audio
      , ~. e  p/ l' N9 j  v$ G
    30. ID                                       : 3
      / e+ v3 O* m/ j0 m( L
    31. Format                                   : DTS# i9 i! @$ z6 i- }- F1 p! E* p% N
    32. Format/Info                              : Digital Theater Systems
      3 \" {9 Y& q" b% F3 T, _$ ~
    33. Mode                                     : 16% a' H( n# R) m
    34. Format settings, Endianness              : Big  g6 m8 A; t0 \6 I- c. r0 @3 H
    35. Codec ID                                 : A_DTS
      . R6 N. I7 h- M' `
    36. Duration                                 : 1h 39mn" A+ a2 x- G" F6 d$ c8 e0 C
    37. Bit rate mode                            : Constant
      ! I4 O' [, F; u
    38. Bit rate                                 : 1 509 Kbps
        q$ K) P! k/ T' Y" h
    39. Channel(s)                               : 6 channels
      " S  w5 l% x& l  W2 |& u
    40. Channel positions                        : Front: L C R, Side: L R, LFE
      / s0 k2 n( K6 W: b
    41. Sampling rate                            : 48.0 KHz
      % c" [; m0 _- e5 X8 H9 a! Q
    42. Frame rate                               : 93.750 fps (512 spf)# K8 X1 T2 \- o# a5 c4 W6 v2 {
    43. Bit depth                                : 24 bits
      # D2 j4 H, T9 f  I% w
    44. Compression mode                         : Lossy' k7 V8 H+ F, W( S
    45. Stream size                              : 1.05 GiB (13%)
      8 c5 X" ]! g2 ]# R
    46. Language                                 : English. H- Z  g" Z. q; M; T( |
    47. Default                                  : Yes6 B' [3 c5 m8 D1 @  c
    48. Forced                                   : No! T8 Q( [- ^" q5 y
    49. ( ^5 u5 b- s$ w" ]
    50. Text. e6 g& m, ^# A& I4 r8 L5 D1 A
    51. ID                                       : 2
      + z# q/ g" W, o& |# \& X
    52. Format                                   : UTF-8" \4 {5 |8 X% I1 [* P5 M
    53. Codec ID                                 : S_TEXT/UTF8
      5 u- @7 x# E$ [4 z
    54. Codec ID/Info                            : UTF-8 Plain Text
      3 f7 P' g& i% @$ ]$ h3 X( E
    55. Language                                 : English, Y/ H" [& p2 N: A; f) a8 d
    56. Default                                  : Yes
      $ j6 G, Y- h4 l5 b; m
    57. Forced                                   : No
    复制代码

    , B0 v" y4 r- x' {5 [+ D* G0 l& J# G
    8 i: Z% ~: M$ J- P4 x) Q

    7 p9 i# L7 b. @* v: C3 }" S9 y8 _

    4 f) L1 R4 \/ Z! g1 \) ]
    $ L# A" V8 O/ ^9 t% e5 L7 q( j. N2 L( o1 S8 ~8 l' u4 r4 S. k
    6 W" K9 s1 c" x1 v: G

    ! h& q/ r+ A6 ]9 P2 J: t# r

    本帖子中包含更多资源

    您需要 登录 才可以下载或查看,没有帐号?立即注册

    x
    回复

    使用道具 举报

  • TA的每日心情
    1
    2017-3-28 23:04
  • 签到天数: 319 天

    [LV.8]以坛为家I

    发表于 2016-12-19 19:20:50 | 显示全部楼层
    除了画面,一无是处。大导演也就这水平!
    回复 支持 反对

    使用道具 举报

  • TA的每日心情
    3
    2017-5-10 00:33
  • 签到天数: 33 天

    [LV.5]常住居民I

    发表于 2016-12-27 16:08:57 | 显示全部楼层
            张艺谋出身不必陈凯歌,所以.......
    回复 支持 反对

    使用道具 举报

    您需要登录后才可以回帖 登录 | 立即注册

    本版积分规则

    QQ|广告友链合作联系QQ2510481767|小黑屋|威酷高清影视论坛

    GMT+8, 2017-5-30 13:31 , Processed in 0.030204 second(s), 19 queries , Gzip On, Redis On.

    Powered by Vkugq!

    © 2010-2016 Vukgq Inc.

    快速回复 返回顶部 返回列表