威酷高清论坛

 找回密码
 立即注册

QQ登录

只需一步,快速开始

查看: 195|回复: 2

[动作] 英雄 Hero.2002.1080p.Bluray.x264-BRMP 7.93GB

[复制链接]
  • TA的每日心情
    9
    2015-8-23 17:39
  • 签到天数: 124 天

    [LV.7]常住居民III

    发表于 2016-12-17 19:00:46 | 显示全部楼层 |阅读模式
    ◎译  名 Hero
    ◎片  名 英雄
    ◎年  代 2002
    ◎国  家 中国大陆/香港
    ◎类  别 剧情/动作/武侠/古装
    ◎语  言 汉语普通话
    ◎上映日期 2002-12-19(中国大陆/香港)
    ◎IMDb评分  7.9/10 from 151,684 users
    ◎豆瓣评分 6.7/10 from 114,132 users
    ◎片  长 93分钟(中国大陆)/99 分钟/110分钟(导演剪辑版)
    ◎导  演 张艺谋 Yimou Zhang
    ◎主  演 李连杰 Jet Li
          梁朝伟 Tony Leung Chiu Wai
          张曼玉 Maggie Cheung
          陈道明 Daoming Chen
          甄子丹 Donnie Yen
          章子怡 Ziyi Zhang
    + {0 C% T+ `& g9 G' c- u
    ◎简  介
    ) f# n5 |/ Z7 M! _: p' e
      战国末期,燕、赵、楚、韩、魏、齐、秦七雄并起,惟秦国最为强大,急欲吞并六国一统天下,秦王(陈道明)因此成为六国大敌,各地不同的刺秦故事一直在上演,其中赵国刺客残剑(梁朝伟)、飞雪(张曼玉)、如月(章子怡)、长空(甄子丹)因名震天下的高超剑术,令秦王十年里没睡过一个安稳觉。
      某日闻得残剑等人已被名叫无名(李连杰)的秦国剑客杀死,秦王大喜急召其上殿相见,却也谨慎小心以防有诈,秦王和无名斗智斗勇的较量遂即展开。
    0 w5 b! s2 Q7 {8 [
    ◎获奖情况

    ( P2 K# e8 X  _8 N& U# L' N
      第75届奥斯卡金像奖  (2003)
      最佳外语片(提名) 张艺谋

    " R7 h; s% n$ U3 d( f) [
      第22届香港电影金像奖  (2003)
      最佳电影(提名)
      最佳导演(提名) 张艺谋
      最佳编剧(提名) 王斌 / 张艺谋 / 李冯
      最佳女主角(提名) 张曼玉
      最佳女配角(提名) 章子怡
      最佳摄影 杜可风
      最佳剪接(提名) 林安儿 / 翟茹
      最佳美术指导 易振洲 / 霍廷霄
      最佳服装造型设计 和田惠美
      最佳动作设计 程小东
      最佳原创电影音乐 谭盾
      最佳原创电影歌曲(提名) 王菲
      最佳音响效果 陶经
      最佳视觉效果 Christopher Horvath / Murray Pope / Jonathan Rothbart / 潘国瑜

    1 l' p7 L; J$ I8 T$ Q: \/ R
      第23届中国电影金鸡奖  (2003)
      最佳导演 张艺谋
      最佳合拍片
      最佳美术 易振洲 / 霍廷霄
      最佳录音 陶经

    1. 9 q5 \" U, z  k& S
    2. Video- D; ~) S! i  u" S, Q  x( t& I
    3. ID                                       : 1
      3 i3 y9 _  P. Z5 ~
    4. Format                                   : AVC
      0 E% ^3 X. Q  W6 r4 A$ r2 X
    5. Format/Info                              : Advanced Video Codec! W* [% O* {0 T# j( a1 P; w
    6. Format profile                           : High@L4.1
      ) o! ]- x5 B2 g5 S* c6 r
    7. Format settings, CABAC                   : Yes
      ' S+ ?8 v, P  I% T) ?
    8. Format settings, ReFrames                : 5 frames
      * ]$ _, `4 g/ x: e, B
    9. Codec ID                                 : V_MPEG4/ISO/AVC
        k+ Q5 X- M& W, C: Q, `
    10. Duration                                 : 1h 39mn0 @6 k: H$ e9 Q$ b
    11. Bit rate                                 : 9 946 Kbps
      ( l5 L8 D/ l9 |' x1 H( T
    12. Width                                    : 1 920 pixels
      7 ~3 J5 s3 w' }0 N
    13. Height                                   : 824 pixels7 e- d( q) O% X$ V' S) V" R2 }" I
    14. Display aspect ratio                     : 2.35:1
      ' M0 Q, i/ `0 J7 v3 q4 f$ Z
    15. Frame rate mode                          : Constant0 v+ G. B# b. X
    16. Frame rate                               : 23.976 fps
      / a# U+ x9 N( e( r
    17. Color space                              : YUV( ~8 V" D; ]3 b0 X. \5 }2 a$ K
    18. Chroma subsampling                       : 4:2:0+ J+ a$ @0 }" r; r7 [
    19. Bit depth                                : 8 bits' B7 F4 J1 B; K6 R. {, S% N; q
    20. Scan type                                : Progressive
      : V" w$ w6 C2 B3 j2 |  Y
    21. Bits/(Pixel*Frame)                       : 0.262' ^1 c# i  e+ U) P
    22. Stream size                              : 6.72 GiB (85%)
      7 B- j# Q& [  B/ o: i8 Q5 t
    23. Writing library                          : x264 core 98 r1649 20cbe10, X5 f" C9 X, f0 n7 j2 t3 Q1 Q1 ^0 ?
    24. Encoding settings                        : cabac=1 / ref=5 / deblock=1:0:0 / analyse=0x3:0x133 / me=umh / subme=7 / psy=1 / psy_rd=1.00:0.00 / mixed_ref=1 / me_range=16 / chroma_me=1 / trellis=1 / 8x8dct=1 / cqm=0 / deadzone=21,11 / fast_pskip=0 / chroma_qp_offset=-2 / threads=12 / sliced_threads=0 / nr=0 / decimate=1 / interlaced=0 / constrained_intra=0 / bframes=3 / b_pyramid=2 / b_adapt=1 / b_bias=0 / direct=1 / weightb=1 / weightp=2 / keyint=250 / keyint_min=25 / scenecut=40 / intra_refresh=0 / rc_lookahead=40 / rc=2pass / mbtree=1 / bitrate=9946 / ratetol=1.0 / qcomp=0.60 / qpmin=10 / qpmax=51 / qpstep=4 / cplxblur=20.0 / qblur=0.5 / ip_ratio=1.40 / aq=1:1.002 M0 d/ b* G- C) ]
    25. Language                                 : English
      5 U0 o* @5 |# e
    26. Default                                  : No
      1 P. t. @: K5 W# }' k' ]: t
    27. Forced                                   : No: q/ K; ]( b' b# p8 U/ ~
    28. # R7 D4 h: G: n2 t3 J. D6 s
    29. Audio' v) B# ~0 i# f, w
    30. ID                                       : 3
      ' P% L4 b6 X; o9 G4 X+ x2 a
    31. Format                                   : DTS
      6 I; w5 M- x& B5 b, S+ w
    32. Format/Info                              : Digital Theater Systems
      . X+ r( F/ s# r9 x5 n  z) t, C! }
    33. Mode                                     : 165 W+ c- F$ \/ v
    34. Format settings, Endianness              : Big% \. ~" H8 |5 }, G
    35. Codec ID                                 : A_DTS
      ! D% }$ p8 M" k! v9 _) y% \
    36. Duration                                 : 1h 39mn, a2 {. Z$ q: k6 y
    37. Bit rate mode                            : Constant# {" n  b6 \3 n1 B2 Y
    38. Bit rate                                 : 1 509 Kbps
      0 S3 X) W3 v9 o
    39. Channel(s)                               : 6 channels
      , M# [' X* A( l
    40. Channel positions                        : Front: L C R, Side: L R, LFE
      - A( _, D  s1 S* o/ C# q2 b" k
    41. Sampling rate                            : 48.0 KHz& U8 T9 A$ w: ~- `3 H4 M
    42. Frame rate                               : 93.750 fps (512 spf)6 B1 s) f" t1 S: l# t- s: l! M
    43. Bit depth                                : 24 bits: S6 S9 @( ^' n; w
    44. Compression mode                         : Lossy4 ~+ d5 d3 D% @1 E
    45. Stream size                              : 1.05 GiB (13%), I6 u- X) X- K% e$ E  G! f
    46. Language                                 : English
      + _! H$ w3 O4 I% f/ @4 G0 F4 i
    47. Default                                  : Yes
      1 R$ B' _8 ~$ S4 g8 \5 [2 a
    48. Forced                                   : No3 I3 D* i* q( L, ~
    49. ' d& R- p0 E2 {5 p" w# S! y0 C
    50. Text3 m5 l1 O6 Z8 C  D1 {7 A
    51. ID                                       : 2" [# ^# |5 [  B) B, b+ n* L2 H
    52. Format                                   : UTF-87 O) u7 W+ A% v& B1 ^9 A1 h- h& N
    53. Codec ID                                 : S_TEXT/UTF8& J4 K" C( [9 V1 c
    54. Codec ID/Info                            : UTF-8 Plain Text5 K! {" s5 |6 p1 J
    55. Language                                 : English' Q  m' }# ]9 c1 S% y8 Q! K, T
    56. Default                                  : Yes
      : d4 E$ e+ W8 n4 h* e2 i# c# O
    57. Forced                                   : No
    复制代码

    9 f4 N; K, B8 `+ k' \" ?- Y( P; ?) i* j5 e3 J
    * S5 w. ^# W3 B

    " p6 U6 a6 q' U) N) C/ U7 ]

      K6 m. l# s  z& H1 S0 ~& J3 X  Z; K* z

    : B, N) x8 h$ I5 ^/ b- A: V; ^% Y3 j9 `; S- R- w) X/ @' O
    7 M4 H& P1 y$ k+ h5 a0 G- n# L

    本帖子中包含更多资源

    您需要 登录 才可以下载或查看,没有帐号?立即注册

    x
    回复

    使用道具 举报

  • TA的每日心情
    1
    前天 22:20
  • 签到天数: 336 天

    [LV.8]以坛为家I

    发表于 2016-12-19 19:20:50 | 显示全部楼层
    除了画面,一无是处。大导演也就这水平!
    回复 支持 反对

    使用道具 举报

  • TA的每日心情
    3
    10 小时前
  • 签到天数: 60 天

    [LV.6]常住居民II

    发表于 2016-12-27 16:08:57 | 显示全部楼层
            张艺谋出身不必陈凯歌,所以.......
    回复 支持 反对

    使用道具 举报

    您需要登录后才可以回帖 登录 | 立即注册

    本版积分规则

    QQ|广告友链合作联系QQ2510481767|小黑屋|威酷高清影视论坛

    GMT+8, 2017-11-18 16:26 , Processed in 0.181592 second(s), 20 queries , Gzip On, Redis On.

    Powered by Vkugq!

    © 2010-2016 Vukgq Inc.

    快速回复 返回顶部 返回列表