威酷高清论坛

 找回密码
 立即注册

QQ登录

只需一步,快速开始

查看: 178|回复: 2

[动作] 英雄 Hero.2002.1080p.Bluray.x264-BRMP 7.93GB

[复制链接]
  • TA的每日心情
    9
    2015-8-23 17:39
  • 签到天数: 124 天

    [LV.7]常住居民III

    发表于 2016-12-17 19:00:46 | 显示全部楼层 |阅读模式
    ◎译  名 Hero
    ◎片  名 英雄
    ◎年  代 2002
    ◎国  家 中国大陆/香港
    ◎类  别 剧情/动作/武侠/古装
    ◎语  言 汉语普通话
    ◎上映日期 2002-12-19(中国大陆/香港)
    ◎IMDb评分  7.9/10 from 151,684 users
    ◎豆瓣评分 6.7/10 from 114,132 users
    ◎片  长 93分钟(中国大陆)/99 分钟/110分钟(导演剪辑版)
    ◎导  演 张艺谋 Yimou Zhang
    ◎主  演 李连杰 Jet Li
          梁朝伟 Tony Leung Chiu Wai
          张曼玉 Maggie Cheung
          陈道明 Daoming Chen
          甄子丹 Donnie Yen
          章子怡 Ziyi Zhang
    2 u& X& u3 I0 N2 Y/ |( P
    ◎简  介

    & k6 ]0 s9 E! `9 r
      战国末期,燕、赵、楚、韩、魏、齐、秦七雄并起,惟秦国最为强大,急欲吞并六国一统天下,秦王(陈道明)因此成为六国大敌,各地不同的刺秦故事一直在上演,其中赵国刺客残剑(梁朝伟)、飞雪(张曼玉)、如月(章子怡)、长空(甄子丹)因名震天下的高超剑术,令秦王十年里没睡过一个安稳觉。
      某日闻得残剑等人已被名叫无名(李连杰)的秦国剑客杀死,秦王大喜急召其上殿相见,却也谨慎小心以防有诈,秦王和无名斗智斗勇的较量遂即展开。
    3 U3 O, C. ^, [; ^
    ◎获奖情况

    # K0 U! _! X% o2 z
      第75届奥斯卡金像奖  (2003)
      最佳外语片(提名) 张艺谋
    # n% n; n' b# ?$ \% e: u; s5 }
      第22届香港电影金像奖  (2003)
      最佳电影(提名)
      最佳导演(提名) 张艺谋
      最佳编剧(提名) 王斌 / 张艺谋 / 李冯
      最佳女主角(提名) 张曼玉
      最佳女配角(提名) 章子怡
      最佳摄影 杜可风
      最佳剪接(提名) 林安儿 / 翟茹
      最佳美术指导 易振洲 / 霍廷霄
      最佳服装造型设计 和田惠美
      最佳动作设计 程小东
      最佳原创电影音乐 谭盾
      最佳原创电影歌曲(提名) 王菲
      最佳音响效果 陶经
      最佳视觉效果 Christopher Horvath / Murray Pope / Jonathan Rothbart / 潘国瑜

    ' ^. w" B/ w8 x/ @. \. E
      第23届中国电影金鸡奖  (2003)
      最佳导演 张艺谋
      最佳合拍片
      最佳美术 易振洲 / 霍廷霄
      最佳录音 陶经

    1. 8 I8 i* f, R, r
    2. Video
      . f- o# C2 ]5 g+ C
    3. ID                                       : 19 Q2 j% y6 P4 _7 C% g, ?4 S8 W/ S9 X
    4. Format                                   : AVC7 D9 w' [  b5 g: t' A8 N
    5. Format/Info                              : Advanced Video Codec
      ( N& I3 ]  n& ], f! k0 x. J
    6. Format profile                           : High@L4.13 `5 V" R# x# j7 A7 G$ F: c
    7. Format settings, CABAC                   : Yes5 m' k' A  ^0 P  f
    8. Format settings, ReFrames                : 5 frames
      ) \2 `- g* ]' Q7 h, ^5 E
    9. Codec ID                                 : V_MPEG4/ISO/AVC
      2 `2 O- D" M. z) r1 a  E1 E5 X
    10. Duration                                 : 1h 39mn
      / w; l4 h; ]; [* U) [, P- c. c6 I
    11. Bit rate                                 : 9 946 Kbps3 J0 C: f: C( b, C2 q9 H+ V5 Y
    12. Width                                    : 1 920 pixels) N( c' V$ D  E. L
    13. Height                                   : 824 pixels
      4 ?+ I+ G" M& u8 M* V! `
    14. Display aspect ratio                     : 2.35:1/ g4 v) B, i7 R  o; U
    15. Frame rate mode                          : Constant
      6 S  Q# U! ?8 v% i
    16. Frame rate                               : 23.976 fps+ E" \  \* R' W
    17. Color space                              : YUV
      9 g% @7 y4 Q- n3 ^
    18. Chroma subsampling                       : 4:2:0
      - I5 A- a. B7 q$ v. ~8 Z% ~
    19. Bit depth                                : 8 bits# [* W% t( M7 @' a
    20. Scan type                                : Progressive" b: w! Z& d4 C0 X, X0 E% r1 r
    21. Bits/(Pixel*Frame)                       : 0.262% w1 H4 A8 R- y! k( S' t- Q# p8 I+ ^. z
    22. Stream size                              : 6.72 GiB (85%)
      / e5 p9 r, M- \" k
    23. Writing library                          : x264 core 98 r1649 20cbe103 R( T8 e; Y7 x8 `5 L0 y* c. Y# Q
    24. Encoding settings                        : cabac=1 / ref=5 / deblock=1:0:0 / analyse=0x3:0x133 / me=umh / subme=7 / psy=1 / psy_rd=1.00:0.00 / mixed_ref=1 / me_range=16 / chroma_me=1 / trellis=1 / 8x8dct=1 / cqm=0 / deadzone=21,11 / fast_pskip=0 / chroma_qp_offset=-2 / threads=12 / sliced_threads=0 / nr=0 / decimate=1 / interlaced=0 / constrained_intra=0 / bframes=3 / b_pyramid=2 / b_adapt=1 / b_bias=0 / direct=1 / weightb=1 / weightp=2 / keyint=250 / keyint_min=25 / scenecut=40 / intra_refresh=0 / rc_lookahead=40 / rc=2pass / mbtree=1 / bitrate=9946 / ratetol=1.0 / qcomp=0.60 / qpmin=10 / qpmax=51 / qpstep=4 / cplxblur=20.0 / qblur=0.5 / ip_ratio=1.40 / aq=1:1.007 Y! C1 o0 o, I" z
    25. Language                                 : English
      $ T) F9 A& T1 ^6 g! ?# x$ K5 i
    26. Default                                  : No
      / }) o3 I  c  |8 E) z5 ~
    27. Forced                                   : No
      . i: s; \) G4 y! e6 R) j4 m) h$ z

    28. ( z/ |4 L( g8 _* @! J# F! j
    29. Audio
      / C$ Y/ c! t& A" g4 E9 d4 r
    30. ID                                       : 3
      ! z7 z5 W7 G- M' O3 Y
    31. Format                                   : DTS
      9 F: _& v8 x' p  {
    32. Format/Info                              : Digital Theater Systems
      8 e- L# J1 A2 z& G* U: k
    33. Mode                                     : 16
        I  T9 @, {  }( k7 j( m; L- t
    34. Format settings, Endianness              : Big
      0 u7 F5 x8 e- b) r2 M: h3 J9 Q) [4 n
    35. Codec ID                                 : A_DTS
      : |; n9 O+ h5 }  I
    36. Duration                                 : 1h 39mn
      2 D/ Y- k" \% W& b$ |  k- }
    37. Bit rate mode                            : Constant( U. Z) U% _1 c6 Z& e7 W
    38. Bit rate                                 : 1 509 Kbps' H4 P: z4 r( k/ S- {; ]9 B  Q, V- u
    39. Channel(s)                               : 6 channels
      " L# Z4 A$ L2 O7 l
    40. Channel positions                        : Front: L C R, Side: L R, LFE
      ! X. _  G5 |: k( x9 q. L: V
    41. Sampling rate                            : 48.0 KHz
      8 O1 V1 ]4 M0 ], x$ {; I  {. ~
    42. Frame rate                               : 93.750 fps (512 spf)1 R' I! f& a2 W
    43. Bit depth                                : 24 bits
      4 A, p, g; \3 w; L3 w$ h0 e, [
    44. Compression mode                         : Lossy4 Y7 K' }$ c; f- Y( I" D1 Q
    45. Stream size                              : 1.05 GiB (13%)- t( y! P# H" a4 i
    46. Language                                 : English3 l. e9 }6 }' d2 W
    47. Default                                  : Yes
      + g: i/ A4 V- M! g# o7 N* e; P
    48. Forced                                   : No
      . v" b* y! H0 b( J$ n, t

    49. . O1 z9 m" B7 y% ]' H6 F
    50. Text
      + G6 W1 k6 g; H4 R4 }
    51. ID                                       : 24 o. k" J; |) Y& `; o
    52. Format                                   : UTF-8, @  O- ~0 g7 j0 j# _
    53. Codec ID                                 : S_TEXT/UTF8/ R& ]/ ^0 `5 k) ~& `1 U! C
    54. Codec ID/Info                            : UTF-8 Plain Text1 k! w& l# n  @" I/ ~
    55. Language                                 : English+ S. Q9 }1 a& Z# D9 d
    56. Default                                  : Yes! w) R+ w0 o3 J- r7 F! _+ l
    57. Forced                                   : No
    复制代码

    % A! @) H3 e' b$ F+ \2 _7 X- M3 O8 I' ^6 G) V( u6 p" C, a# b: |
    $ T3 c( Z! D' Y9 z- v0 M( W* \

    - A% L- i- p+ p0 _' ?. `( K

    1 C6 v" B/ l' ^( X8 S/ F; K/ x7 h$ C0 w+ w5 R0 p- K- _# \8 y
    ; t' ?" {9 M* N1 _5 w' X
    5 x; g' T4 ~8 q8 g
    ( e8 @; P# `; ?: E* j+ T7 |. @

    本帖子中包含更多资源

    您需要 登录 才可以下载或查看,没有帐号?立即注册

    x
    回复

    使用道具 举报

  • TA的每日心情
    1
    2017-3-28 23:04
  • 签到天数: 319 天

    [LV.8]以坛为家I

    发表于 2016-12-19 19:20:50 | 显示全部楼层
    除了画面,一无是处。大导演也就这水平!
    回复 支持 反对

    使用道具 举报

  • TA的每日心情
    5
    昨天 22:23
  • 签到天数: 44 天

    [LV.5]常住居民I

    发表于 2016-12-27 16:08:57 | 显示全部楼层
            张艺谋出身不必陈凯歌,所以.......
    回复 支持 反对

    使用道具 举报

    您需要登录后才可以回帖 登录 | 立即注册

    本版积分规则

    QQ|广告友链合作联系QQ2510481767|小黑屋|威酷高清影视论坛

    GMT+8, 2017-7-27 00:26 , Processed in 0.040188 second(s), 20 queries , Gzip On, Redis On.

    Powered by Vkugq!

    © 2010-2016 Vukgq Inc.

    快速回复 返回顶部 返回列表