威酷高清论坛

 找回密码
 立即注册

QQ登录

只需一步,快速开始

查看: 135|回复: 2

[动作] 英雄 Hero.2002.1080p.Bluray.x264-BRMP 7.93GB

[复制链接]
  • TA的每日心情
    9
    2015-8-23 17:39
  • 签到天数: 124 天

    [LV.7]常住居民III

    发表于 2016-12-17 19:00:46 | 显示全部楼层 |阅读模式
    ◎译  名 Hero
    ◎片  名 英雄
    ◎年  代 2002
    ◎国  家 中国大陆/香港
    ◎类  别 剧情/动作/武侠/古装
    ◎语  言 汉语普通话
    ◎上映日期 2002-12-19(中国大陆/香港)
    ◎IMDb评分  7.9/10 from 151,684 users
    ◎豆瓣评分 6.7/10 from 114,132 users
    ◎片  长 93分钟(中国大陆)/99 分钟/110分钟(导演剪辑版)
    ◎导  演 张艺谋 Yimou Zhang
    ◎主  演 李连杰 Jet Li
          梁朝伟 Tony Leung Chiu Wai
          张曼玉 Maggie Cheung
          陈道明 Daoming Chen
          甄子丹 Donnie Yen
          章子怡 Ziyi Zhang
    6 z* E; k8 `' x: Z9 L
    ◎简  介

    ' G1 `7 `7 L& i2 t$ R
      战国末期,燕、赵、楚、韩、魏、齐、秦七雄并起,惟秦国最为强大,急欲吞并六国一统天下,秦王(陈道明)因此成为六国大敌,各地不同的刺秦故事一直在上演,其中赵国刺客残剑(梁朝伟)、飞雪(张曼玉)、如月(章子怡)、长空(甄子丹)因名震天下的高超剑术,令秦王十年里没睡过一个安稳觉。
      某日闻得残剑等人已被名叫无名(李连杰)的秦国剑客杀死,秦王大喜急召其上殿相见,却也谨慎小心以防有诈,秦王和无名斗智斗勇的较量遂即展开。
    5 g' z+ q8 m/ r- ?( ^: p
    ◎获奖情况
      u8 ]- {5 n& _( x  W
      第75届奥斯卡金像奖  (2003)
      最佳外语片(提名) 张艺谋
    & q, f' l7 u& L
      第22届香港电影金像奖  (2003)
      最佳电影(提名)
      最佳导演(提名) 张艺谋
      最佳编剧(提名) 王斌 / 张艺谋 / 李冯
      最佳女主角(提名) 张曼玉
      最佳女配角(提名) 章子怡
      最佳摄影 杜可风
      最佳剪接(提名) 林安儿 / 翟茹
      最佳美术指导 易振洲 / 霍廷霄
      最佳服装造型设计 和田惠美
      最佳动作设计 程小东
      最佳原创电影音乐 谭盾
      最佳原创电影歌曲(提名) 王菲
      最佳音响效果 陶经
      最佳视觉效果 Christopher Horvath / Murray Pope / Jonathan Rothbart / 潘国瑜

    . S6 B8 ~5 `* n' ]
      第23届中国电影金鸡奖  (2003)
      最佳导演 张艺谋
      最佳合拍片
      最佳美术 易振洲 / 霍廷霄
      最佳录音 陶经

    1. 3 q% _3 _( R" F: u" X
    2. Video  ]# I% w8 T  p9 y2 t
    3. ID                                       : 1; k  p$ I" ]8 E1 u' U) M" C
    4. Format                                   : AVC) K" v- [9 X- R' U# {. i8 y- L8 ?6 @
    5. Format/Info                              : Advanced Video Codec. T' |2 G) O2 B% l0 v; I" ?
    6. Format profile                           : High@L4.1
      1 @  o' D0 t2 V% a( w
    7. Format settings, CABAC                   : Yes
        Z% t* c: d1 A
    8. Format settings, ReFrames                : 5 frames
      - f6 R/ j( I+ M* r, u! b
    9. Codec ID                                 : V_MPEG4/ISO/AVC: R. f- Z0 l* l  l; {- y$ }. e
    10. Duration                                 : 1h 39mn/ S& T0 b: ]( Z! I
    11. Bit rate                                 : 9 946 Kbps
      " a& v! c0 u$ J- j& n2 D
    12. Width                                    : 1 920 pixels
      & D/ q( \  g9 S9 E, O( i7 t. F
    13. Height                                   : 824 pixels/ s% a/ g) a" e/ t9 S5 l
    14. Display aspect ratio                     : 2.35:1
      ! n$ C9 D# i1 c* x
    15. Frame rate mode                          : Constant
      ( P7 o. v8 V( @& ^
    16. Frame rate                               : 23.976 fps0 d0 I6 ^! T- N% L7 t
    17. Color space                              : YUV$ `# C3 v8 i! M: u8 a
    18. Chroma subsampling                       : 4:2:0
      % F$ C6 K; o0 {; [' x" C
    19. Bit depth                                : 8 bits! q8 S) v/ m4 r
    20. Scan type                                : Progressive# @. t6 d# k/ l
    21. Bits/(Pixel*Frame)                       : 0.262
      : W2 l0 ^& }) O, V! |$ t% R' Z
    22. Stream size                              : 6.72 GiB (85%). e# l: i$ y; U& }" i0 T
    23. Writing library                          : x264 core 98 r1649 20cbe107 q6 g4 o; i% L  p& ]
    24. Encoding settings                        : cabac=1 / ref=5 / deblock=1:0:0 / analyse=0x3:0x133 / me=umh / subme=7 / psy=1 / psy_rd=1.00:0.00 / mixed_ref=1 / me_range=16 / chroma_me=1 / trellis=1 / 8x8dct=1 / cqm=0 / deadzone=21,11 / fast_pskip=0 / chroma_qp_offset=-2 / threads=12 / sliced_threads=0 / nr=0 / decimate=1 / interlaced=0 / constrained_intra=0 / bframes=3 / b_pyramid=2 / b_adapt=1 / b_bias=0 / direct=1 / weightb=1 / weightp=2 / keyint=250 / keyint_min=25 / scenecut=40 / intra_refresh=0 / rc_lookahead=40 / rc=2pass / mbtree=1 / bitrate=9946 / ratetol=1.0 / qcomp=0.60 / qpmin=10 / qpmax=51 / qpstep=4 / cplxblur=20.0 / qblur=0.5 / ip_ratio=1.40 / aq=1:1.00
      , s1 i" C5 b0 ~" G; m8 S! p2 Y& s
    25. Language                                 : English3 w* c% B% G/ z& Q
    26. Default                                  : No
      $ \0 b: O) I( {# T  `1 L
    27. Forced                                   : No/ v3 G# A9 H+ {: }. q, y4 p
    28. ' B/ y# S$ m9 O) l$ I2 P6 k% I
    29. Audio
      / ?  @. R# [( F# m7 i( h# t% b' p
    30. ID                                       : 3
        f4 |& f% S$ t1 P! p- B7 |
    31. Format                                   : DTS) G2 _( F/ L8 ~7 z( q
    32. Format/Info                              : Digital Theater Systems
      , ~' [4 d) [  ~. ^4 B
    33. Mode                                     : 16
      8 N0 ?9 F  ^1 U9 e" P! J
    34. Format settings, Endianness              : Big1 _  A8 R( I- F0 J' [
    35. Codec ID                                 : A_DTS) U9 [5 I& y5 B) u+ H/ F* A
    36. Duration                                 : 1h 39mn
      , U: n( k9 |5 t+ M9 I
    37. Bit rate mode                            : Constant$ s2 ]4 |8 [  r/ G* G" M
    38. Bit rate                                 : 1 509 Kbps- X' j. y- i( F4 J! R
    39. Channel(s)                               : 6 channels
      : I3 ]& [$ j: }1 C5 g
    40. Channel positions                        : Front: L C R, Side: L R, LFE* y. ~3 u4 f" i4 Z/ i
    41. Sampling rate                            : 48.0 KHz
      ' n+ s1 B" S# W/ u! T* R4 ~
    42. Frame rate                               : 93.750 fps (512 spf)
      + w$ K5 U9 P0 m/ K, K
    43. Bit depth                                : 24 bits
      2 n+ t1 u2 f8 H
    44. Compression mode                         : Lossy
      " T" z) G: l4 I4 y& \: `
    45. Stream size                              : 1.05 GiB (13%)
      1 i# M4 G' X/ B
    46. Language                                 : English
      : m3 c7 G2 `! T2 Y0 B+ z* n7 f7 q+ X9 k
    47. Default                                  : Yes' ~, L4 n8 h! q& W  E! m4 V5 ~7 R9 [- u
    48. Forced                                   : No
      + a# c$ D& w" b$ j$ x5 ?& c2 g
    49. : g6 y/ ^* q% o* t
    50. Text
      4 [# ?: g6 x5 ]4 y% w
    51. ID                                       : 29 ]$ B( U  x) W0 G) I
    52. Format                                   : UTF-89 _0 _# I' [! X: `" i6 ^$ ?% @5 K* ]
    53. Codec ID                                 : S_TEXT/UTF8
      / r" I2 w- l( E
    54. Codec ID/Info                            : UTF-8 Plain Text
      # m7 `) o6 e7 b& K
    55. Language                                 : English
      # @/ X( q( Y: f: n/ C: y
    56. Default                                  : Yes
      8 ?& Z2 k, n; R5 {4 S, `' \! V
    57. Forced                                   : No
    复制代码
    ! o) p+ K! P0 R9 l2 e/ ^' Q
    7 ]4 a7 s4 }0 t: K

    % X* E3 T% h% d( J; b  n) l. B" F1 P3 k2 U" x' F

    7 W2 U/ O8 `. f' h- l) ~1 @* D; _4 B! K/ N4 M8 t( Y# p
    + k8 z' r4 N5 O% D7 u

    . K; E2 U0 @1 s2 N( D" o
    : ~. X, u- F$ `' B

    本帖子中包含更多资源

    您需要 登录 才可以下载或查看,没有帐号?立即注册

    x
    回复

    使用道具 举报

  • TA的每日心情
    1
    前天 23:04
  • 签到天数: 319 天

    [LV.8]以坛为家I

    发表于 2016-12-19 19:20:50 | 显示全部楼层
    除了画面,一无是处。大导演也就这水平!
    回复 支持 反对

    使用道具 举报

  • TA的每日心情
    9
    2017-3-19 01:24
  • 签到天数: 29 天

    [LV.4]偶尔看看III

    发表于 2016-12-27 16:08:57 | 显示全部楼层
            张艺谋出身不必陈凯歌,所以.......
    回复 支持 反对

    使用道具 举报

    您需要登录后才可以回帖 登录 | 立即注册

    本版积分规则

    QQ|广告友链合作联系QQ2510481767|小黑屋|威酷高清影视论坛

    GMT+8, 2017-3-30 10:52 , Processed in 0.036625 second(s), 20 queries , Gzip On, Redis On.

    Powered by Vkugq!

    © 2010-2016 Vukgq Inc.

    快速回复 返回顶部 返回列表