威酷高清论坛

 找回密码
 立即注册

QQ登录

只需一步,快速开始

查看: 116|回复: 2

[动作] 英雄 Hero.2002.1080p.Bluray.x264-BRMP 7.93GB

[复制链接]
  • TA的每日心情
    今天挺高兴
    2015-8-23 17:39
  • 签到天数: 124 天

    [LV.7]常住居民III

    发表于 2016-12-17 19:00:46 | 显示全部楼层 |阅读模式
    ◎译  名 Hero
    ◎片  名 英雄
    ◎年  代 2002
    ◎国  家 中国大陆/香港
    ◎类  别 剧情/动作/武侠/古装
    ◎语  言 汉语普通话
    ◎上映日期 2002-12-19(中国大陆/香港)
    ◎IMDb评分  7.9/10 from 151,684 users
    ◎豆瓣评分 6.7/10 from 114,132 users
    ◎片  长 93分钟(中国大陆)/99 分钟/110分钟(导演剪辑版)
    ◎导  演 张艺谋 Yimou Zhang
    ◎主  演 李连杰 Jet Li
          梁朝伟 Tony Leung Chiu Wai
          张曼玉 Maggie Cheung
          陈道明 Daoming Chen
          甄子丹 Donnie Yen
          章子怡 Ziyi Zhang
    7 ]4 U  b7 ]# b* a$ p. ]( K
    ◎简  介
    ; Q2 v/ |- I) r1 t% F8 [' ?, J
      战国末期,燕、赵、楚、韩、魏、齐、秦七雄并起,惟秦国最为强大,急欲吞并六国一统天下,秦王(陈道明)因此成为六国大敌,各地不同的刺秦故事一直在上演,其中赵国刺客残剑(梁朝伟)、飞雪(张曼玉)、如月(章子怡)、长空(甄子丹)因名震天下的高超剑术,令秦王十年里没睡过一个安稳觉。
      某日闻得残剑等人已被名叫无名(李连杰)的秦国剑客杀死,秦王大喜急召其上殿相见,却也谨慎小心以防有诈,秦王和无名斗智斗勇的较量遂即展开。

    : T0 a8 Y: u5 Q' r, p8 V
    ◎获奖情况
    : I5 ]6 R+ D. F$ E
      第75届奥斯卡金像奖  (2003)
      最佳外语片(提名) 张艺谋
    $ s) |. U" o% Q
      第22届香港电影金像奖  (2003)
      最佳电影(提名)
      最佳导演(提名) 张艺谋
      最佳编剧(提名) 王斌 / 张艺谋 / 李冯
      最佳女主角(提名) 张曼玉
      最佳女配角(提名) 章子怡
      最佳摄影 杜可风
      最佳剪接(提名) 林安儿 / 翟茹
      最佳美术指导 易振洲 / 霍廷霄
      最佳服装造型设计 和田惠美
      最佳动作设计 程小东
      最佳原创电影音乐 谭盾
      最佳原创电影歌曲(提名) 王菲
      最佳音响效果 陶经
      最佳视觉效果 Christopher Horvath / Murray Pope / Jonathan Rothbart / 潘国瑜
    - e% O1 g8 I) ]& [4 y
      第23届中国电影金鸡奖  (2003)
      最佳导演 张艺谋
      最佳合拍片
      最佳美术 易振洲 / 霍廷霄
      最佳录音 陶经
    1. ! d9 G" U5 j! F( w
    2. Video
      . f* b" H2 `0 {4 Z$ w! a
    3. ID                                       : 1
      7 r9 B* O; {+ i6 [" U7 S
    4. Format                                   : AVC1 h6 C. n- N; T3 a/ _
    5. Format/Info                              : Advanced Video Codec
      3 |8 l1 V9 y: k2 Y4 ^, I- l# W
    6. Format profile                           : [email protected]
      + o. A* @, b9 W+ s' j
    7. Format settings, CABAC                   : Yes
      - p* E3 L& g% V; w4 W# x$ z2 e1 B
    8. Format settings, ReFrames                : 5 frames9 l  z  h8 v! Q4 d
    9. Codec ID                                 : V_MPEG4/ISO/AVC6 ^) F% W& H3 Z% w
    10. Duration                                 : 1h 39mn" }7 |. C( b7 P3 T; P
    11. Bit rate                                 : 9 946 Kbps* \# o# c! ^7 q7 @4 ?9 t. n' b
    12. Width                                    : 1 920 pixels' Y! A" g* F3 f
    13. Height                                   : 824 pixels1 J% _" ]) n# B
    14. Display aspect ratio                     : 2.35:18 I# R/ q; ?/ M5 z& m; G
    15. Frame rate mode                          : Constant
      : G) A' }! w7 D& t' Y6 u
    16. Frame rate                               : 23.976 fps$ X: J5 F: I; c) O# t0 R2 n
    17. Color space                              : YUV- U8 J( ~/ I( G* ]4 g9 c/ F
    18. Chroma subsampling                       : 4:2:0
      3 H2 k7 W7 N  d1 ?' I! G7 \% x% a
    19. Bit depth                                : 8 bits4 g3 L/ u. k6 v/ H
    20. Scan type                                : Progressive+ S- c2 U2 }) U1 I  @" n
    21. Bits/(Pixel*Frame)                       : 0.262
      : B8 U" O8 R) P
    22. Stream size                              : 6.72 GiB (85%)
      ) z. r6 Z& F* f' M6 l: G+ A
    23. Writing library                          : x264 core 98 r1649 20cbe108 n9 b  Y1 L- k( o6 |
    24. Encoding settings                        : cabac=1 / ref=5 / deblock=1:0:0 / analyse=0x3:0x133 / me=umh / subme=7 / psy=1 / psy_rd=1.00:0.00 / mixed_ref=1 / me_range=16 / chroma_me=1 / trellis=1 / 8x8dct=1 / cqm=0 / deadzone=21,11 / fast_pskip=0 / chroma_qp_offset=-2 / threads=12 / sliced_threads=0 / nr=0 / decimate=1 / interlaced=0 / constrained_intra=0 / bframes=3 / b_pyramid=2 / b_adapt=1 / b_bias=0 / direct=1 / weightb=1 / weightp=2 / keyint=250 / keyint_min=25 / scenecut=40 / intra_refresh=0 / rc_lookahead=40 / rc=2pass / mbtree=1 / bitrate=9946 / ratetol=1.0 / qcomp=0.60 / qpmin=10 / qpmax=51 / qpstep=4 / cplxblur=20.0 / qblur=0.5 / ip_ratio=1.40 / aq=1:1.00( b! x* w6 A$ E" T$ ^$ |
    25. Language                                 : English, t/ E+ [. `- w* A% e+ g
    26. Default                                  : No
      # H4 s9 i7 b$ p3 g: Z1 R
    27. Forced                                   : No0 y/ }* E6 b: Y, K9 ~0 j
    28. 9 w0 t) ^# ]/ G. b2 x( ~/ c
    29. Audio
      * R; Y) b, V  t
    30. ID                                       : 3: c3 l, d1 z  H+ e% f+ h
    31. Format                                   : DTS, |8 a; O) t2 I: {  [4 i0 K! D2 ~3 v
    32. Format/Info                              : Digital Theater Systems; ^+ h9 D/ z; W  _( v5 F
    33. Mode                                     : 16
      - k0 @( U5 a+ _7 a# p
    34. Format settings, Endianness              : Big
      ' o+ _8 z5 }# B1 P/ q& D# G
    35. Codec ID                                 : A_DTS
      2 T( g6 Z; Q# J7 M+ y
    36. Duration                                 : 1h 39mn& J+ I* e# r% i/ ^8 x/ q0 b
    37. Bit rate mode                            : Constant  d* m7 [2 e( B% s) D
    38. Bit rate                                 : 1 509 Kbps
      , J+ V9 A/ k% Y! f2 V' X  c% w- r
    39. Channel(s)                               : 6 channels5 P( X* `+ U( V+ w: D1 T
    40. Channel positions                        : Front: L C R, Side: L R, LFE: q0 p0 ]2 I) u7 k; P' {
    41. Sampling rate                            : 48.0 KHz! ?  \: @! ?- q' |- a2 D* J
    42. Frame rate                               : 93.750 fps (512 spf)
      % `- a8 K/ ], e$ t4 B! ~# A* g
    43. Bit depth                                : 24 bits
      / w$ o8 A" r4 D" d2 e3 y9 {7 w& n9 G
    44. Compression mode                         : Lossy- T, r! A2 |9 W# s
    45. Stream size                              : 1.05 GiB (13%)
      4 B/ F8 l7 j/ I# O  O8 O3 \
    46. Language                                 : English
      : z, {) T! e8 P. l, V
    47. Default                                  : Yes: x0 U7 h: R- V, J4 e5 _+ O
    48. Forced                                   : No
      4 V: _. J1 J3 {) ^- _5 J

    49. : W* w7 K. S$ Y3 A, K0 B6 {
    50. Text
      5 E8 M$ g6 H0 O- N' L
    51. ID                                       : 2
      $ M9 m  z* v5 q( t+ [
    52. Format                                   : UTF-8# \) X& T& n0 _* a
    53. Codec ID                                 : S_TEXT/UTF8' ?" S' z  J5 D8 [6 V/ t) z
    54. Codec ID/Info                            : UTF-8 Plain Text
      8 H% T5 a; m2 t- }' t) r, ]& ~
    55. Language                                 : English
      & m' I3 d6 G/ s
    56. Default                                  : Yes, G3 Y5 _5 X8 o! \, n; W  X- `% p
    57. Forced                                   : No
    复制代码

    ) `+ k( v7 `9 o6 k& F7 ?
    - u2 K7 v# K% X$ v  K# [

    ; ~: p# ^0 E1 ]! r( k& e4 L6 u& D8 U  Q3 ]! v9 P* w/ \
    * x! ]' e, a1 U8 m: _& R. \/ ]

    2 F! {2 o- T; P6 _* }: z
    3 b. U0 f8 a) {% ~) E+ q) c
    3 _1 m# C4 H( e& B3 S
    / _6 v# f: T, z7 S  B

    本帖子中包含更多资源

    您需要 登录 才可以下载或查看,没有帐号?立即注册

    x
    回复

    使用道具 举报

  • TA的每日心情
    今天挺高兴
    昨天 17:34
  • 签到天数: 315 天

    [LV.8]以坛为家I

    发表于 2016-12-19 19:20:50 | 显示全部楼层
    除了画面,一无是处。大导演也就这水平!
    回复 支持 反对

    使用道具 举报

  • TA的每日心情
    好冷啊
    2017-2-8 00:19
  • 签到天数: 18 天

    [LV.4]偶尔看看III

    发表于 2016-12-27 16:08:57 | 显示全部楼层
            张艺谋出身不必陈凯歌,所以.......
    回复 支持 反对

    使用道具 举报

    您需要登录后才可以回帖 登录 | 立即注册

    本版积分规则

    QQ|广告友链合作联系QQ2510481767|小黑屋|威酷高清影视论坛

    GMT+8, 2017-2-24 02:49 , Processed in 0.156000 second(s), 39 queries , Gzip On.

    Powered by Vkugq!

    © 2010-2016 Vukgq Inc.

    快速回复 返回顶部 返回列表