威酷高清论坛

 找回密码
 立即注册

QQ登录

只需一步,快速开始

查看: 98|回复: 2

[动作] 英雄 Hero.2002.1080p.Bluray.x264-BRMP 7.93GB

[复制链接]
  • TA的每日心情
    今天挺高兴
    2015-8-23 17:39
  • 签到天数: 124 天

    [LV.7]常住居民III

    发表于 2016-12-17 19:00:46 | 显示全部楼层 |阅读模式
    ◎译  名 Hero
    ◎片  名 英雄
    ◎年  代 2002
    ◎国  家 中国大陆/香港
    ◎类  别 剧情/动作/武侠/古装
    ◎语  言 汉语普通话
    ◎上映日期 2002-12-19(中国大陆/香港)
    ◎IMDb评分  7.9/10 from 151,684 users
    ◎豆瓣评分 6.7/10 from 114,132 users
    ◎片  长 93分钟(中国大陆)/99 分钟/110分钟(导演剪辑版)
    ◎导  演 张艺谋 Yimou Zhang
    ◎主  演 李连杰 Jet Li
          梁朝伟 Tony Leung Chiu Wai
          张曼玉 Maggie Cheung
          陈道明 Daoming Chen
          甄子丹 Donnie Yen
          章子怡 Ziyi Zhang

    ) w6 K' n# ]% b9 U7 m2 q/ o7 K/ r# n
    ◎简  介

    8 G5 D3 U) M  k/ R# ]
      战国末期,燕、赵、楚、韩、魏、齐、秦七雄并起,惟秦国最为强大,急欲吞并六国一统天下,秦王(陈道明)因此成为六国大敌,各地不同的刺秦故事一直在上演,其中赵国刺客残剑(梁朝伟)、飞雪(张曼玉)、如月(章子怡)、长空(甄子丹)因名震天下的高超剑术,令秦王十年里没睡过一个安稳觉。
      某日闻得残剑等人已被名叫无名(李连杰)的秦国剑客杀死,秦王大喜急召其上殿相见,却也谨慎小心以防有诈,秦王和无名斗智斗勇的较量遂即展开。

    & v* Y7 \, z) K: V  n1 O
    ◎获奖情况
    : a" o" W$ r  t6 h+ Q
      第75届奥斯卡金像奖  (2003)
      最佳外语片(提名) 张艺谋

    & F' S% ]1 ^& f0 Q3 p! N$ U2 {' r  \
      第22届香港电影金像奖  (2003)
      最佳电影(提名)
      最佳导演(提名) 张艺谋
      最佳编剧(提名) 王斌 / 张艺谋 / 李冯
      最佳女主角(提名) 张曼玉
      最佳女配角(提名) 章子怡
      最佳摄影 杜可风
      最佳剪接(提名) 林安儿 / 翟茹
      最佳美术指导 易振洲 / 霍廷霄
      最佳服装造型设计 和田惠美
      最佳动作设计 程小东
      最佳原创电影音乐 谭盾
      最佳原创电影歌曲(提名) 王菲
      最佳音响效果 陶经
      最佳视觉效果 Christopher Horvath / Murray Pope / Jonathan Rothbart / 潘国瑜
    - R; V/ m- U1 a% w' T, g6 W- \
      第23届中国电影金鸡奖  (2003)
      最佳导演 张艺谋
      最佳合拍片
      最佳美术 易振洲 / 霍廷霄
      最佳录音 陶经
    1. * s5 T+ F- e$ ~" o; H3 A
    2. Video, `1 x$ h( Q$ H
    3. ID                                       : 1
      ( H2 {, `( ]! K+ b9 ~- o
    4. Format                                   : AVC
      ( |2 a8 Z$ X8 t. X2 f: k
    5. Format/Info                              : Advanced Video Codec, U* [1 ~/ S& J% J* j8 m
    6. Format profile                           : [email protected]
      6 w9 L5 w% Z# J- p
    7. Format settings, CABAC                   : Yes
      : q2 a, w. I% g' |( O
    8. Format settings, ReFrames                : 5 frames
      " B. h" C/ B8 y  B& s+ h, N
    9. Codec ID                                 : V_MPEG4/ISO/AVC
      3 y) }( {6 @8 X! g
    10. Duration                                 : 1h 39mn/ G5 I$ g8 P9 O9 ?) k
    11. Bit rate                                 : 9 946 Kbps5 _. U+ ]  ~  _0 `
    12. Width                                    : 1 920 pixels5 v7 c9 Z) v# L# ^, f" R
    13. Height                                   : 824 pixels
      : d& \" y7 D  l6 w% s
    14. Display aspect ratio                     : 2.35:1' N* |' I' `5 J+ o
    15. Frame rate mode                          : Constant% O* B' b7 w& Z4 D- y, d! j. }
    16. Frame rate                               : 23.976 fps
      7 d8 [$ |/ Q6 ~7 |$ g( [* o
    17. Color space                              : YUV# q! H, M4 R" L0 ^" n
    18. Chroma subsampling                       : 4:2:0% B! L3 p; t( Y
    19. Bit depth                                : 8 bits) g% S' O8 B, U% I7 _3 S0 W
    20. Scan type                                : Progressive: {- Q" Q; y5 M5 S
    21. Bits/(Pixel*Frame)                       : 0.262. I) B1 w! M+ c  R. A
    22. Stream size                              : 6.72 GiB (85%)
      . q" H* o5 ~+ C, {
    23. Writing library                          : x264 core 98 r1649 20cbe10! K: t* j5 F0 ~: e
    24. Encoding settings                        : cabac=1 / ref=5 / deblock=1:0:0 / analyse=0x3:0x133 / me=umh / subme=7 / psy=1 / psy_rd=1.00:0.00 / mixed_ref=1 / me_range=16 / chroma_me=1 / trellis=1 / 8x8dct=1 / cqm=0 / deadzone=21,11 / fast_pskip=0 / chroma_qp_offset=-2 / threads=12 / sliced_threads=0 / nr=0 / decimate=1 / interlaced=0 / constrained_intra=0 / bframes=3 / b_pyramid=2 / b_adapt=1 / b_bias=0 / direct=1 / weightb=1 / weightp=2 / keyint=250 / keyint_min=25 / scenecut=40 / intra_refresh=0 / rc_lookahead=40 / rc=2pass / mbtree=1 / bitrate=9946 / ratetol=1.0 / qcomp=0.60 / qpmin=10 / qpmax=51 / qpstep=4 / cplxblur=20.0 / qblur=0.5 / ip_ratio=1.40 / aq=1:1.001 o% t# ?' k+ ]
    25. Language                                 : English
      , J0 `# a. Z) ]& V9 ^0 h9 ^
    26. Default                                  : No. _/ W3 p- y) s* r# E$ X
    27. Forced                                   : No* _, f* U+ G: m+ k8 B) p
    28. ' I9 _# {4 D6 R6 B6 e
    29. Audio9 t* \5 h1 m6 v( U
    30. ID                                       : 3) X" O" y6 S2 c: ~* i5 ~
    31. Format                                   : DTS
      ( y; J% w1 n$ ?3 u0 e+ T
    32. Format/Info                              : Digital Theater Systems- u+ ]! ]( P8 ^4 Q1 U( L! F
    33. Mode                                     : 16
      2 I( t& ], H4 c
    34. Format settings, Endianness              : Big+ {3 e, J7 ^. o% m* F/ O
    35. Codec ID                                 : A_DTS
      . c# v4 d' z& \0 ]9 i% b' X, ~4 |" J
    36. Duration                                 : 1h 39mn5 F/ a5 h; @; |- [# R8 c
    37. Bit rate mode                            : Constant
      - V0 u: x4 A/ l3 k! D- x- Y) M
    38. Bit rate                                 : 1 509 Kbps
      * C" w6 V- j' t* @+ H6 n) g
    39. Channel(s)                               : 6 channels
      9 N  C$ m2 M/ t9 M5 j. o
    40. Channel positions                        : Front: L C R, Side: L R, LFE
        c$ m$ F* K$ O6 |' J  }2 a: z' s
    41. Sampling rate                            : 48.0 KHz, m+ P/ p! U: L, n" @/ {: m9 ~
    42. Frame rate                               : 93.750 fps (512 spf)
      & @; F2 H+ ~& K5 |, ]
    43. Bit depth                                : 24 bits
        J$ q& u0 F5 f  j% E* S6 D
    44. Compression mode                         : Lossy# g9 x8 D$ T2 a# n$ l
    45. Stream size                              : 1.05 GiB (13%)
      # i& ^* g- Q6 s$ u/ U
    46. Language                                 : English$ m, m! ?% X/ C3 ?/ f
    47. Default                                  : Yes
      2 l. c: E- n, z* D2 X% K: N. G
    48. Forced                                   : No3 h1 q7 q8 s  w( b! t1 |& s$ [
    49. 5 Z2 y6 t; H* U' K
    50. Text
      + l$ t2 D" j  Q/ f5 R( F
    51. ID                                       : 2
      6 \, N0 s/ r# A) ]
    52. Format                                   : UTF-8
      $ V3 V( P+ {3 h
    53. Codec ID                                 : S_TEXT/UTF8
      % N" j7 r) Q/ b6 y
    54. Codec ID/Info                            : UTF-8 Plain Text6 O. X8 ?) q2 c6 P- D; m0 N
    55. Language                                 : English
      / Y+ P. G3 ]1 F- W6 F- |' Y7 l
    56. Default                                  : Yes
      7 b: n7 g4 q& G% _' Y$ f% K
    57. Forced                                   : No
    复制代码

    7 w7 A0 J; u; F. s. y. R, l& X. G
    $ r) \* j' v7 j8 x2 {2 I
    ' G$ G& h0 l9 J# Y0 P. e* d% r) J

    3 _  N) q3 u; f6 M- e
      E! O9 e" Z, O1 J0 M% q
    , `, W. E' ]  M3 z& \6 P# b: ^3 |7 M9 U7 D3 m) ^) l9 U
    # b; B% Q2 n0 F% [( D- c- T

    本帖子中包含更多资源

    您需要 登录 才可以下载或查看,没有帐号?立即注册

    x
    回复

    使用道具 举报

  • TA的每日心情
    今天挺高兴
    5 天前
  • 签到天数: 294 天

    [LV.8]以坛为家I

    发表于 2016-12-19 19:20:50 | 显示全部楼层
    除了画面,一无是处。大导演也就这水平!
    回复 支持 反对

    使用道具 举报

  • TA的每日心情
    摇一摇
    2017-1-2 00:01
  • 签到天数: 16 天

    [LV.4]偶尔看看III

    发表于 2016-12-27 16:08:57 | 显示全部楼层
            张艺谋出身不必陈凯歌,所以.......
    回复 支持 反对

    使用道具 举报

    您需要登录后才可以回帖 登录 | 立即注册

    本版积分规则

    QQ|广告友链合作联系QQ2510481767|小黑屋|威酷高清影视论坛

    GMT+8, 2017-1-19 00:02 , Processed in 0.156000 second(s), 39 queries , Gzip On.

    Powered by Vkugq!

    © 2010-2016 Vukgq Inc.

    快速回复 返回顶部 返回列表