威酷高清论坛

 找回密码
 立即注册

QQ登录

只需一步,快速开始

查看: 191|回复: 2

[动作] 英雄 Hero.2002.1080p.Bluray.x264-BRMP 7.93GB

[复制链接]
  • TA的每日心情
    9
    2015-8-23 17:39
  • 签到天数: 124 天

    [LV.7]常住居民III

    发表于 2016-12-17 19:00:46 | 显示全部楼层 |阅读模式
    ◎译  名 Hero
    ◎片  名 英雄
    ◎年  代 2002
    ◎国  家 中国大陆/香港
    ◎类  别 剧情/动作/武侠/古装
    ◎语  言 汉语普通话
    ◎上映日期 2002-12-19(中国大陆/香港)
    ◎IMDb评分  7.9/10 from 151,684 users
    ◎豆瓣评分 6.7/10 from 114,132 users
    ◎片  长 93分钟(中国大陆)/99 分钟/110分钟(导演剪辑版)
    ◎导  演 张艺谋 Yimou Zhang
    ◎主  演 李连杰 Jet Li
          梁朝伟 Tony Leung Chiu Wai
          张曼玉 Maggie Cheung
          陈道明 Daoming Chen
          甄子丹 Donnie Yen
          章子怡 Ziyi Zhang

    , H/ L2 h- ~: B) h- t7 x7 F; u0 v
    ◎简  介
    , U/ S$ R+ q2 c% `2 t: y
      战国末期,燕、赵、楚、韩、魏、齐、秦七雄并起,惟秦国最为强大,急欲吞并六国一统天下,秦王(陈道明)因此成为六国大敌,各地不同的刺秦故事一直在上演,其中赵国刺客残剑(梁朝伟)、飞雪(张曼玉)、如月(章子怡)、长空(甄子丹)因名震天下的高超剑术,令秦王十年里没睡过一个安稳觉。
      某日闻得残剑等人已被名叫无名(李连杰)的秦国剑客杀死,秦王大喜急召其上殿相见,却也谨慎小心以防有诈,秦王和无名斗智斗勇的较量遂即展开。

    3 Z+ x! y; x6 L! c. P  Z
    ◎获奖情况

    $ Y+ k1 ~- \& f
      第75届奥斯卡金像奖  (2003)
      最佳外语片(提名) 张艺谋
    $ Q$ ]& S* q- ^) j
      第22届香港电影金像奖  (2003)
      最佳电影(提名)
      最佳导演(提名) 张艺谋
      最佳编剧(提名) 王斌 / 张艺谋 / 李冯
      最佳女主角(提名) 张曼玉
      最佳女配角(提名) 章子怡
      最佳摄影 杜可风
      最佳剪接(提名) 林安儿 / 翟茹
      最佳美术指导 易振洲 / 霍廷霄
      最佳服装造型设计 和田惠美
      最佳动作设计 程小东
      最佳原创电影音乐 谭盾
      最佳原创电影歌曲(提名) 王菲
      最佳音响效果 陶经
      最佳视觉效果 Christopher Horvath / Murray Pope / Jonathan Rothbart / 潘国瑜
    - }6 Q5 I5 S9 W; o* l$ k
      第23届中国电影金鸡奖  (2003)
      最佳导演 张艺谋
      最佳合拍片
      最佳美术 易振洲 / 霍廷霄
      最佳录音 陶经
    1. 7 D' N$ c% G5 z  G  \. @: C
    2. Video
      ; g) H% M* c/ t1 |2 A& Z8 D
    3. ID                                       : 1
      + ~8 v  V+ q" O7 ]5 {
    4. Format                                   : AVC$ l+ P6 E& f/ i1 z) ^
    5. Format/Info                              : Advanced Video Codec: W1 v7 J. Y8 W( U; f% {8 t
    6. Format profile                           : High@L4.1
      + ^4 |# s' b+ b" H6 t* d
    7. Format settings, CABAC                   : Yes
      # R( R8 j# r  L: o
    8. Format settings, ReFrames                : 5 frames- M$ A& g7 ^) j) C
    9. Codec ID                                 : V_MPEG4/ISO/AVC
      + Y) c/ o( u7 R$ C: }* H4 x
    10. Duration                                 : 1h 39mn. r3 g, e! L3 B2 z9 Q
    11. Bit rate                                 : 9 946 Kbps
      9 C/ s. g5 M! s  ?5 _2 u; D8 q2 }
    12. Width                                    : 1 920 pixels
      2 ~- m$ |' ~4 u" O" c
    13. Height                                   : 824 pixels, |' n0 \6 [5 P0 n! Y# W
    14. Display aspect ratio                     : 2.35:1# B  Z) C4 u% k! S& [2 T
    15. Frame rate mode                          : Constant
      6 r' ]: F: V) g4 g. A' ]8 ~2 l
    16. Frame rate                               : 23.976 fps
      ( c- t; q7 j6 a. @& [# h. e1 A
    17. Color space                              : YUV
      8 U, d" n& z$ k* _- H
    18. Chroma subsampling                       : 4:2:0
      - y6 c5 u3 e, n6 o  x2 \' M9 O) l
    19. Bit depth                                : 8 bits- n- ^7 R$ k. Y
    20. Scan type                                : Progressive
      ; N% o, \! q9 d. u% y0 j1 e
    21. Bits/(Pixel*Frame)                       : 0.262
      ; o- M+ _& x5 z# q% v$ l
    22. Stream size                              : 6.72 GiB (85%)) Z8 z0 }4 Z4 e' K: o1 e; C
    23. Writing library                          : x264 core 98 r1649 20cbe10
      0 c; q  [* ^, v. g
    24. Encoding settings                        : cabac=1 / ref=5 / deblock=1:0:0 / analyse=0x3:0x133 / me=umh / subme=7 / psy=1 / psy_rd=1.00:0.00 / mixed_ref=1 / me_range=16 / chroma_me=1 / trellis=1 / 8x8dct=1 / cqm=0 / deadzone=21,11 / fast_pskip=0 / chroma_qp_offset=-2 / threads=12 / sliced_threads=0 / nr=0 / decimate=1 / interlaced=0 / constrained_intra=0 / bframes=3 / b_pyramid=2 / b_adapt=1 / b_bias=0 / direct=1 / weightb=1 / weightp=2 / keyint=250 / keyint_min=25 / scenecut=40 / intra_refresh=0 / rc_lookahead=40 / rc=2pass / mbtree=1 / bitrate=9946 / ratetol=1.0 / qcomp=0.60 / qpmin=10 / qpmax=51 / qpstep=4 / cplxblur=20.0 / qblur=0.5 / ip_ratio=1.40 / aq=1:1.006 [. N; y- u& W4 s" t  X
    25. Language                                 : English8 z# v- o, J+ r! _
    26. Default                                  : No
      - [/ h3 L: K8 R2 E9 V- Q
    27. Forced                                   : No
      $ G* u# r6 `/ h3 P8 u, V. H
    28. # Z' t0 C! Z/ I0 b$ x
    29. Audio. i$ d/ H- c: ?: S  d
    30. ID                                       : 3
        G6 [0 D8 L/ q$ r9 ?
    31. Format                                   : DTS
      ! B& e+ C9 W) G4 R8 C" T( i8 V
    32. Format/Info                              : Digital Theater Systems
      9 ]* p8 Z7 v# O1 H$ m( z7 j
    33. Mode                                     : 16: ?$ i+ Z3 S9 @: W4 e7 @
    34. Format settings, Endianness              : Big+ Z$ i5 N8 Q: H! V! J
    35. Codec ID                                 : A_DTS& t( W, p; r4 w+ M% c0 z/ J
    36. Duration                                 : 1h 39mn: T7 h+ \/ O$ n
    37. Bit rate mode                            : Constant6 _, K# D3 T$ A7 u7 O
    38. Bit rate                                 : 1 509 Kbps& ^$ J) C5 S3 r3 M0 T9 ?
    39. Channel(s)                               : 6 channels- s/ e: A, k1 q! w
    40. Channel positions                        : Front: L C R, Side: L R, LFE; v0 s9 _, L8 h3 }8 L
    41. Sampling rate                            : 48.0 KHz% E, V# u1 j0 X; a' U" {' ^* j
    42. Frame rate                               : 93.750 fps (512 spf)  x1 n( ~! `( V0 d  x9 `
    43. Bit depth                                : 24 bits# g' H' Z+ t4 a8 D- c1 P
    44. Compression mode                         : Lossy1 }0 {8 n# ]+ B6 \: {
    45. Stream size                              : 1.05 GiB (13%)# I5 Y% E1 ^! f
    46. Language                                 : English
      7 S$ J2 Q, {, c% l  v8 z6 e, E9 \
    47. Default                                  : Yes$ g( W6 i5 q8 z3 e: l1 f6 A# h
    48. Forced                                   : No
      ! i: V8 {* X' B. q) f' k; c

    49. 6 S/ u) P+ n, S9 T  R- L' C5 e5 K
    50. Text( G7 o$ u/ W9 A+ w4 D* U
    51. ID                                       : 2
      ( Z! Y% i9 H+ d9 q' Y
    52. Format                                   : UTF-8
      , w; k. H& H* T2 q  J: I; _& R0 T
    53. Codec ID                                 : S_TEXT/UTF8
      ! @: ^, d# n9 l$ x
    54. Codec ID/Info                            : UTF-8 Plain Text
      + F! ]. X% \, M/ K) W% a8 f: F
    55. Language                                 : English$ Z7 X1 S4 f2 j' E# d* x- ]% t' g4 R
    56. Default                                  : Yes
      & g' D, U# Q' C8 m6 X
    57. Forced                                   : No
    复制代码

    * F0 N/ ]' ?% r; s) k$ R8 s9 d* u5 F9 d, {

    , q3 P) F, Q1 p) }# s& x  D( [1 [- ^
    ' e1 r! `) H, a+ q/ e: I0 }

    ; Y9 K* {. Z8 S
    3 q) U+ Q+ v* E5 }2 l. ]
    ' b2 {. }' S1 T$ Q# h$ q5 R% _9 M! ?7 d3 ~0 t8 C

    2 \$ X- X4 G4 w, c

    本帖子中包含更多资源

    您需要 登录 才可以下载或查看,没有帐号?立即注册

    x
    回复

    使用道具 举报

  • TA的每日心情
    1
    2017-8-27 21:24
  • 签到天数: 324 天

    [LV.8]以坛为家I

    发表于 2016-12-19 19:20:50 | 显示全部楼层
    除了画面,一无是处。大导演也就这水平!
    回复 支持 反对

    使用道具 举报

  • TA的每日心情
    7
    4 天前
  • 签到天数: 51 天

    [LV.5]常住居民I

    发表于 2016-12-27 16:08:57 | 显示全部楼层
            张艺谋出身不必陈凯歌,所以.......
    回复 支持 反对

    使用道具 举报

    您需要登录后才可以回帖 登录 | 立即注册

    本版积分规则

    QQ|广告友链合作联系QQ2510481767|小黑屋|威酷高清影视论坛

    GMT+8, 2017-9-21 20:09 , Processed in 0.081349 second(s), 20 queries , Gzip On, Redis On.

    Powered by Vkugq!

    © 2010-2016 Vukgq Inc.

    快速回复 返回顶部 返回列表