威酷高清论坛

 找回密码
 立即注册

QQ登录

只需一步,快速开始

查看: 242|回复: 2

[动作] 英雄 Hero.2002.1080p.Bluray.x264-BRMP 7.93GB

[复制链接]
  • TA的每日心情
    9
    2015-8-23 17:39
  • 签到天数: 124 天

    [LV.7]常住居民III

    发表于 2016-12-17 19:00:46 | 显示全部楼层 |阅读模式
    ◎译  名 Hero
    ◎片  名 英雄
    ◎年  代 2002
    ◎国  家 中国大陆/香港
    ◎类  别 剧情/动作/武侠/古装
    ◎语  言 汉语普通话
    ◎上映日期 2002-12-19(中国大陆/香港)
    ◎IMDb评分  7.9/10 from 151,684 users
    ◎豆瓣评分 6.7/10 from 114,132 users
    ◎片  长 93分钟(中国大陆)/99 分钟/110分钟(导演剪辑版)
    ◎导  演 张艺谋 Yimou Zhang
    ◎主  演 李连杰 Jet Li
          梁朝伟 Tony Leung Chiu Wai
          张曼玉 Maggie Cheung
          陈道明 Daoming Chen
          甄子丹 Donnie Yen
          章子怡 Ziyi Zhang

    8 D/ H6 U; Q% H5 y. u2 `/ k- v
    ◎简  介
    # T  T& I/ s* @9 p) J7 y
      战国末期,燕、赵、楚、韩、魏、齐、秦七雄并起,惟秦国最为强大,急欲吞并六国一统天下,秦王(陈道明)因此成为六国大敌,各地不同的刺秦故事一直在上演,其中赵国刺客残剑(梁朝伟)、飞雪(张曼玉)、如月(章子怡)、长空(甄子丹)因名震天下的高超剑术,令秦王十年里没睡过一个安稳觉。
      某日闻得残剑等人已被名叫无名(李连杰)的秦国剑客杀死,秦王大喜急召其上殿相见,却也谨慎小心以防有诈,秦王和无名斗智斗勇的较量遂即展开。

    2 i1 e* q2 Q0 e" @5 R! K4 ~; ^
    ◎获奖情况

    8 V$ z" L0 M& \1 ?5 t! n
      第75届奥斯卡金像奖  (2003)
      最佳外语片(提名) 张艺谋

    , p( U4 I: d' b9 p3 M- L: S$ R& J
      第22届香港电影金像奖  (2003)
      最佳电影(提名)
      最佳导演(提名) 张艺谋
      最佳编剧(提名) 王斌 / 张艺谋 / 李冯
      最佳女主角(提名) 张曼玉
      最佳女配角(提名) 章子怡
      最佳摄影 杜可风
      最佳剪接(提名) 林安儿 / 翟茹
      最佳美术指导 易振洲 / 霍廷霄
      最佳服装造型设计 和田惠美
      最佳动作设计 程小东
      最佳原创电影音乐 谭盾
      最佳原创电影歌曲(提名) 王菲
      最佳音响效果 陶经
      最佳视觉效果 Christopher Horvath / Murray Pope / Jonathan Rothbart / 潘国瑜
    4 C7 o! m8 t* k" r% H' i
      第23届中国电影金鸡奖  (2003)
      最佳导演 张艺谋
      最佳合拍片
      最佳美术 易振洲 / 霍廷霄
      最佳录音 陶经

    1. " G1 N+ o& l" C* {/ f
    2. Video
      * n7 p" I, `, B# }# q( q
    3. ID                                       : 19 O0 \& _" ?" _" T: A  ]
    4. Format                                   : AVC
      , x! p  V5 k$ W- m2 e2 z# B
    5. Format/Info                              : Advanced Video Codec
      2 K0 M+ T* ~( s0 z7 W7 W" f
    6. Format profile                           : High@L4.1
      4 i% t, P- \- v7 }
    7. Format settings, CABAC                   : Yes5 D* t7 S' E' N5 q  x- m0 W) @
    8. Format settings, ReFrames                : 5 frames0 _6 t0 N. g! W0 y. V
    9. Codec ID                                 : V_MPEG4/ISO/AVC1 b( Z. V" D' `/ E6 C
    10. Duration                                 : 1h 39mn4 `! f+ o' z0 X) \6 _+ w: v$ c
    11. Bit rate                                 : 9 946 Kbps
      # U7 w4 u2 Y2 x7 ^9 ?
    12. Width                                    : 1 920 pixels
      6 R, |( k. ~( ^. I
    13. Height                                   : 824 pixels
      / W- ^: P/ p; G2 q* i' ?( ~; l
    14. Display aspect ratio                     : 2.35:1" f) ^  A$ ?# N, T
    15. Frame rate mode                          : Constant( z3 Y6 a* T) g4 L1 P3 ^4 E
    16. Frame rate                               : 23.976 fps+ {: S; E! j* `( C6 s( B
    17. Color space                              : YUV6 [/ A& b3 P3 w: o. [5 A+ a7 E
    18. Chroma subsampling                       : 4:2:0- Z" v" l, f: D, p3 j
    19. Bit depth                                : 8 bits
      6 f4 e3 w- s* F; [- G2 d1 A
    20. Scan type                                : Progressive7 o$ |" H# F2 o* h7 ~' ]& L5 ^5 R
    21. Bits/(Pixel*Frame)                       : 0.2626 N" S' D+ v3 n7 a7 Q: ?' N
    22. Stream size                              : 6.72 GiB (85%)! Q( ~3 K) \  }
    23. Writing library                          : x264 core 98 r1649 20cbe10
      : C& M) h, e) Z
    24. Encoding settings                        : cabac=1 / ref=5 / deblock=1:0:0 / analyse=0x3:0x133 / me=umh / subme=7 / psy=1 / psy_rd=1.00:0.00 / mixed_ref=1 / me_range=16 / chroma_me=1 / trellis=1 / 8x8dct=1 / cqm=0 / deadzone=21,11 / fast_pskip=0 / chroma_qp_offset=-2 / threads=12 / sliced_threads=0 / nr=0 / decimate=1 / interlaced=0 / constrained_intra=0 / bframes=3 / b_pyramid=2 / b_adapt=1 / b_bias=0 / direct=1 / weightb=1 / weightp=2 / keyint=250 / keyint_min=25 / scenecut=40 / intra_refresh=0 / rc_lookahead=40 / rc=2pass / mbtree=1 / bitrate=9946 / ratetol=1.0 / qcomp=0.60 / qpmin=10 / qpmax=51 / qpstep=4 / cplxblur=20.0 / qblur=0.5 / ip_ratio=1.40 / aq=1:1.00: u$ A3 D# U$ {" K# U
    25. Language                                 : English% z, {; I7 V  t
    26. Default                                  : No
      . [0 Q: z" }0 U6 Q' D
    27. Forced                                   : No
      + w9 p( n2 O; P) m* i
    28. , }; X5 j) `& ]' m0 w7 r! b
    29. Audio
      ! ~1 I- E1 I* K% V9 z' W# V/ x& S
    30. ID                                       : 3( G  s0 H. x, K
    31. Format                                   : DTS
      3 r, e2 `* i+ i3 f+ c7 Z2 s
    32. Format/Info                              : Digital Theater Systems
      ( g% }0 ?8 L# L
    33. Mode                                     : 16
      7 C: f0 L0 ~1 R" A
    34. Format settings, Endianness              : Big6 y9 J/ b5 T  I! A) B& c
    35. Codec ID                                 : A_DTS
      3 y8 `! S! e. S' g
    36. Duration                                 : 1h 39mn5 q8 V; ~8 o) ^# N. k! t; t6 t
    37. Bit rate mode                            : Constant2 D% `4 \9 E. l% N# }+ n* u! O
    38. Bit rate                                 : 1 509 Kbps3 G/ S& A' H5 [' E5 h# c, n
    39. Channel(s)                               : 6 channels
      " Z# ]! V. [# ^/ J
    40. Channel positions                        : Front: L C R, Side: L R, LFE  T; Q5 T- V/ V  G  @
    41. Sampling rate                            : 48.0 KHz
      + C  W8 ~4 ^0 W2 f
    42. Frame rate                               : 93.750 fps (512 spf)1 i9 ]# l& M3 D- \+ j, R
    43. Bit depth                                : 24 bits8 H: P2 J) W5 W5 K% ]5 Y; D! X7 E
    44. Compression mode                         : Lossy
      ( c! _; z. u1 ?$ n' T. g% k! H, h
    45. Stream size                              : 1.05 GiB (13%)# D9 A" P" c4 H
    46. Language                                 : English* Y" h* K7 |2 V1 x! v  m
    47. Default                                  : Yes
      9 o" w! O/ R, Q
    48. Forced                                   : No
        x: s/ H$ c$ k1 V; r( b, J
    49. . `: J8 z. K; M  Q
    50. Text
      * ?0 R- V2 h: U# {
    51. ID                                       : 2
      ' y8 M" K0 d: |% H
    52. Format                                   : UTF-8
      $ l7 d" E( B, }6 c
    53. Codec ID                                 : S_TEXT/UTF8
      4 }3 ^6 t$ B9 U0 _1 ^5 ?1 [8 a( F
    54. Codec ID/Info                            : UTF-8 Plain Text$ `0 Q' o* g2 s4 @6 }/ A5 V* T
    55. Language                                 : English. k. r. ?7 v+ T2 d3 k) `- A
    56. Default                                  : Yes9 t4 |7 q6 d1 g+ S
    57. Forced                                   : No
    复制代码

    , g2 G) j: P! |. u/ k
    2 \8 O4 U. y( z5 r
    & d9 n: o5 b2 Q4 t

    ) l; I+ T/ o! P: K/ x( Q

    8 j! j5 p5 }+ R6 \
    9 R9 K4 b) m% a4 P# |, ~) r4 b8 Y- s1 c; v( F! u# Y

    $ D8 G+ [  E- {1 m7 ~. E
      j9 n. m  w9 |( n! m

    本帖子中包含更多资源

    您需要 登录 才可以下载或查看,没有帐号?立即注册

    x
    回复

    使用道具 举报

  • TA的每日心情
    1
    2018-5-10 18:04
  • 签到天数: 359 天

    [LV.8]以坛为家I

    发表于 2016-12-19 19:20:50 | 显示全部楼层
    除了画面,一无是处。大导演也就这水平!
    回复 支持 反对

    使用道具 举报

  • TA的每日心情
    3
    2018-3-15 02:22
  • 签到天数: 89 天

    [LV.6]常住居民II

    发表于 2016-12-27 16:08:57 | 显示全部楼层
            张艺谋出身不必陈凯歌,所以.......
    回复 支持 反对

    使用道具 举报

    您需要登录后才可以回帖 登录 | 立即注册

    本版积分规则

    QQ|广告友链合作联系QQ1820944494|小黑屋|威酷高清影视论坛

    GMT+8, 2018-5-22 03:02 , Processed in 0.018989 second(s), 14 queries , Gzip On, Redis On.

    Powered by Discuz! X3.4

    © 2001-2017 Comsenz Inc.

    快速回复 返回顶部 返回列表