威酷高清论坛

 找回密码
 立即注册

QQ登录

只需一步,快速开始

查看: 168|回复: 0

[动作] 射杀英雄 Shoot.The.Hero.2010.1080p.BluRay.x264-THUGLiNE 6.5GB

[复制链接]
  • TA的每日心情
    9
    2015-8-23 17:39
  • 签到天数: 124 天

    [LV.7]常住居民III

    发表于 2017-1-1 07:05:39 | 显示全部楼层 |阅读模式
    ◎译  名 射杀英雄
    ◎片  名 Shoot the Hero
    ◎年  代 2010
    ◎国  家 美国
    ◎类  别 动作/喜剧
    ◎语  言 英语
    ◎上映日期 2009-06-15
    ◎IMDb评分  3.6/10 from 733 users
    ◎导  演 Christian Sesma
    ◎主  演 Nicholas Turturro
          Steve Talley
          Samantha Lockwood
          Taylor Negron

    $ r" r+ A( g: R( h. r
    ◎简  介

    8 T0 n1 p" Z0 |) [" o
      一对30多岁的夫妇在购买结婚戒指时无意间卷入了一个拙劣的珠宝抢劫案。当策划抢劫的恶棍赌场老板雇佣两名男子来收拾残局时,使得案情更加紧张。同时,那对即将成为丈夫和妻子从他们身上发现有关他们自己新的东西以及他们之间的关系......

    ! H" y. J( w& @, ]4 o( @0 T. ^
    1. 7 g, X+ p: J- G( S
    2. Video+ N3 L8 t! T) d/ x5 y
    3. ID                                       : 1
      ) T. U3 S, ~# u3 Y) u, a7 t
    4. Format                                   : AVC
      1 e/ N4 i$ X" f- H
    5. Format/Info                              : Advanced Video Codec. w8 b6 M8 d8 v; ~4 h
    6. Format profile                           : High@L4.1
      5 x, M2 R9 S) U
    7. Format settings, CABAC                   : Yes/ D" J/ I2 z' I0 y
    8. Format settings, ReFrames                : 4 frames
      6 e% p) \( v0 }( l7 r
    9. Codec ID                                 : V_MPEG4/ISO/AVC- k1 M4 e3 T) {
    10. Duration                                 : 1h 20mn
      0 Y' i' b# v8 I' ~
    11. Bit rate                                 : 10.2 Mbps5 |7 z9 i* O9 ]3 z. P9 `
    12. Width                                    : 1 920 pixels( M9 ]) H/ u3 T  p; C: i
    13. Height                                   : 872 pixels# T# y8 `5 a. a' ~
    14. Display aspect ratio                     : 2.2:11 j1 [7 U6 ~& a. |" ^/ W* [) U' v
    15. Frame rate mode                          : Constant* B! F& x+ d" T1 I9 _8 n) m
    16. Frame rate                               : 23.976 (24000/1001) fps& v  O0 {% G7 H9 W4 |6 f" E, y( c+ A
    17. Color space                              : YUV" \0 I/ c, M8 V' z8 Y0 G6 i
    18. Chroma subsampling                       : 4:2:0
      ) D1 `4 c6 s  z0 j. ]$ k: x
    19. Bit depth                                : 8 bits
      5 A, g4 |( j6 w0 Z
    20. Scan type                                : Progressive8 C: M4 q# s% J0 K- T. E3 L/ S/ j
    21. Bits/(Pixel*Frame)                       : 0.253! `. ^. q( {; v4 D; f! D8 C
    22. Stream size                              : 5.58 GiB (85%)
      0 h5 y( G2 }* {, e: \- Z  g$ k$ V
    23. Writing library                          : x264 core 105 r1724 b02df7b
      $ i. I7 B9 u( T9 B8 c
    24. Encoding settings                        : cabac=1 / ref=4 / deblock=1:0:0 / analyse=0x3:0x133 / me=umh / subme=9 / psy=1 / psy_rd=1.00:0.00 / mixed_ref=1 / me_range=16 / chroma_me=1 / trellis=1 / 8x8dct=1 / cqm=0 / deadzone=21,11 / fast_pskip=0 / chroma_qp_offset=-2 / threads=12 / sliced_threads=0 / nr=0 / decimate=1 / interlaced=0 / constrained_intra=0 / bframes=3 / b_pyramid=2 / b_adapt=1 / b_bias=0 / direct=1 / weightb=1 / open_gop=0 / weightp=2 / keyint=250 / keyint_min=23 / scenecut=40 / intra_refresh=0 / rc_lookahead=40 / rc=2pass / mbtree=1 / bitrate=10160 / ratetol=1.0 / qcomp=0.60 / qpmin=10 / qpmax=51 / qpstep=4 / cplxblur=20.0 / qblur=0.5 / ip_ratio=1.40 / aq=1:1.00
      1 m5 e/ I, E5 T& s4 Q
    25. Language                                 : English, E3 [* I' Q$ u+ ?4 o9 b
    26. Default                                  : No" U! B. q) q0 z! W: z9 H" L3 Z
    27. Forced                                   : No3 x. J9 {' t/ Z! U2 F& |

    28. 9 N+ h! i8 Y' l/ p- ?
    29. Audio  h) ~' F5 ~+ X; A! ~/ l1 V& ?' o4 m
    30. ID                                       : 2
      ( ~/ |" j, l5 g$ b# P. ~& |& v: B2 B
    31. Format                                   : DTS
      ! F4 [0 `0 a2 T$ |. d, ~8 j6 J' c
    32. Format/Info                              : Digital Theater Systems" B9 N! R% s8 h! G  L+ X3 m" [
    33. Mode                                     : 161 N. S. k0 @7 T5 b& f
    34. Format settings, Endianness              : Big, z; X: r& O  A: r
    35. Codec ID                                 : A_DTS
      / x( R7 O; u6 m, G5 F% c/ [
    36. Duration                                 : 1h 20mn$ h; V% l! X0 d) B9 C, \
    37. Bit rate mode                            : Constant. K8 E1 x. T) F3 t
    38. Bit rate                                 : 1 509 Kbps: L( O9 K- ]* r- K4 g3 S
    39. Channel(s)                               : 6 channels+ ]6 L5 j! [) ]) j& }
    40. Channel positions                        : Front: L C R, Side: L R, LFE
      , U* u' d4 N% L! S
    41. Sampling rate                            : 48.0 KHz+ G  w( d3 M( ]" W2 v' q8 C5 t8 M
    42. Frame rate                               : 93.750 fps (512 spf)
      7 L  ^0 [/ L* k6 H$ u
    43. Bit depth                                : 16 bits) ]: Z1 K& p7 [. L- F; P
    44. Compression mode                         : Lossy
      $ B. ~+ {& V$ G9 f- y
    45. Stream size                              : 869 MiB (13%)
      5 ^) _' L: H! Q% c3 y) h
    46. Language                                 : English$ J1 D* Y2 A  N* \
    47. Default                                  : Yes4 N2 c) N7 K! a
    48. Forced                                   : No
      # }1 L! N" c" F6 \! ^2 Y
    复制代码

    ! ^6 i# p6 V' j+ v2 f, I: U% _
    ! d7 }- k: ~( p. D6 W$ U8 q  w

    . a6 I# R8 G* W4 Z' f

    , K# [; h# D. ^
    & D5 C+ Z. S' p+ r
    / r- `' B: o+ ]/ K9 t

    3 W1 W9 F) X* B. q8 C& b
    3 o9 \/ w* {6 A# G/ O

    本帖子中包含更多资源

    您需要 登录 才可以下载或查看,没有帐号?立即注册

    x
    回复

    使用道具 举报

    您需要登录后才可以回帖 登录 | 立即注册

    本版积分规则

    QQ|广告友链合作联系QQ2510481767|小黑屋|威酷高清影视论坛

    GMT+8, 2017-6-24 18:21 , Processed in 0.034107 second(s), 20 queries , Gzip On, Redis On.

    Powered by Vkugq!

    © 2010-2016 Vukgq Inc.

    快速回复 返回顶部 返回列表