威酷高清论坛

 找回密码
 立即注册

QQ登录

只需一步,快速开始

查看: 104|回复: 0

[喜剧] 全民战争 War.on.Everyone.2016.1080p.WEB-DL.DD5.1.H264-FGT 3.37GB

[复制链接]
  • TA的每日心情
    今天挺高兴
    2015-8-23 17:39
  • 签到天数: 124 天

    [LV.7]常住居民III

    发表于 2017-1-5 18:37:19 | 显示全部楼层 |阅读模式
    ◎译  名 全民战争
    ◎片  名 War on Everyone
    ◎年  代 2016
    ◎国  家 英国
    ◎类  别 喜剧
    ◎语  言 英语
    ◎上映日期 2016-10-07(英国)
    ◎IMDb评分  6.4/10 from 1,516 users
    ◎豆瓣评分 6.2/10 from 14 users
    ◎片  长 98分钟
    ◎导  演 约翰· 迈克尔·麦克道纳格 John Michael McDonagh
    ◎主  演 亚历山大·斯卡斯加德 Alexander Skarsgård
          泰莎·汤普森 Tessa Thompson
          迈克尔·佩纳 Michael Peña
          提奥·詹姆斯 Theo James
          卡赖伯·兰德里·琼斯 Caleb Landry Jones
          斯黛芬妮·西格曼 Stephanie Sigman
          保罗·雷瑟 Paul Reiser
          迪兰·科宁 Dylan Kenin
          理查德·比尔 Richard Beal
          Keith Jardine
      O3 x9 E. u, r- Y
    ◎简  介

    : H2 K6 g9 ^8 a. k& @) x. @" {
      Two corrupt cops in New Mexico set out to blackmail and frame every criminal unfortunate enough to cross their path. Things take a sinister turn, however, when they try to intimidate someone who is more dangerous than they are. Or is he?

    1. 8 ^. U$ H& {" ]3 r: i8 s

    2. ! {# ~3 u9 r1 F2 F. g* |, m9 E2 \
    3. Video
      / a/ a! K& n7 @2 N3 Y7 F5 n
    4. ID                                       : 1
      " Z' v" c5 g' ?" y1 r7 G6 ?+ E* l
    5. Format                                   : AVC& ^! g$ D( d/ _
    6. Format/Info                              : Advanced Video Codec
      ( b0 G$ T! |+ B& y8 K4 E; e
    7. Format profile                           : [email protected]
      ( y" L" @; u3 P, ~) B- A
    8. Format settings, CABAC                   : Yes, B( U, Z! A5 F3 h4 S4 s5 T6 }- ^
    9. Format settings, ReFrames                : 5 frames
      ' h8 H4 n2 S# c0 d* \* C$ p9 I* e
    10. Format settings, GOP                     : N=1$ L: H% `6 S1 T' _% \
    11. Codec ID                                 : V_MPEG4/ISO/AVC  E* N4 J2 H7 S$ g5 y
    12. Duration                                 : 1h 37mn
      1 S. f% x- _8 b. _
    13. Bit rate                                 : 4 459 Kbps
      , G3 }# f/ N& o6 N/ ?$ j
    14. Width                                    : 1 920 pixels
      * G. j9 o; K/ P' I, J8 v/ g
    15. Height                                   : 796 pixels$ ~% u* n  W: N+ N% m
    16. Display aspect ratio                     : 2.40:1! i, s; U; |# ?1 T% G0 l! u3 |/ |
    17. Frame rate mode                          : Constant6 s. a+ Q7 ?- s+ c2 v% [6 c! i4 I  s
    18. Frame rate                               : 24.000 fps
      - g4 [0 f  J" T& B# h
    19. Color space                              : YUV. K9 L8 p! {& V' C) Z! b5 {( k
    20. Chroma subsampling                       : 4:2:0& M" J& r4 @* v/ P; a3 X6 I( C
    21. Bit depth                                : 8 bits
      + X) h; z$ u' s0 D5 P5 T+ i
    22. Scan type                                : Progressive
      % a. k# x: s) G( m* S" R
    23. Bits/(Pixel*Frame)                       : 0.1226 [! f$ P0 m; b6 \0 ~
    24. Stream size                              : 3.04 GiB (90%)
      & o2 o8 _, v+ z/ Y& R# Y; |. h! h
    25. Title                                    : War.on.Everyone.2016.1080p.WEB-DL.DD5.1.H264-FGT
      " b+ O" {7 i8 A
    26. Language                                 : English
      3 O; e3 h  F2 W; o5 X5 i; p
    27. Default                                  : Yes
      . g. R# Z. O. H" t1 ^
    28. Forced                                   : No7 ^: D& S: \  {2 M
    29. Color range                              : Limited
        ?0 I" ~' ]- f8 i8 Y" z) z( j8 }1 R4 U
    30. Color primaries                          : BT.709
      - B8 A# B1 f& l+ Y  T
    31. Transfer characteristics                 : BT.7095 r) M4 n7 `$ ~, n* o
    32. Matrix coefficients                      : BT.709
      ( b! x3 Y% Q, _0 Q3 q. |

    33. * V& K  x: L7 k& n8 [3 a5 C2 Q
    34. Audio/ t  ?1 R# a, q) h
    35. ID                                       : 2! b+ L  B& }, ?" i0 f5 f8 a
    36. Format                                   : AC-3: ]% i1 P2 N/ ]3 t% ]
    37. Format/Info                              : Audio Coding 3
      7 {' t" Q0 ]2 `( N; d* A
    38. Mode extension                           : CM (complete main)
      & b/ y6 O( G! F4 d
    39. Format settings, Endianness              : Big7 `! R& a4 i% m
    40. Codec ID                                 : A_AC3) ^0 H3 [: Z  F: e% T; x- M) |
    41. Duration                                 : 1h 37mn
      / V; u) I, {( j2 |
    42. Bit rate mode                            : Constant. M% K) V& V# j5 B  T, O
    43. Bit rate                                 : 384 Kbps
      ! v8 f! f' F9 U: K1 h
    44. Channel(s)                               : 6 channels
      : T$ v" Z% ?; _. D# c
    45. Channel positions                        : Front: L C R, Side: L R, LFE
      1 x9 d* v7 m1 I* k. Q) U
    46. Sampling rate                            : 48.0 KHz
      7 i5 C1 q$ [! `0 c  n
    47. Frame rate                               : 31.250 fps (1536 spf)* X: B2 v3 Z5 S* l  Z5 i6 j
    48. Compression mode                         : Lossy1 P  ]6 x2 Y4 O: w
    49. Stream size                              : 268 MiB (8%)
      4 y/ i. g) D4 y6 E
    50. Title                                    : War.on.Everyone.2016.1080p.WEB-DL.DD5.1.H264-FGT
      . K& l3 J2 q: U+ R- {2 v
    51. Language                                 : English" o1 G! P8 u6 b; D* @5 o
    52. Default                                  : Yes4 f. q, N( T1 t+ @
    53. Forced                                   : No3 n0 w  q6 y9 W$ @5 {" U4 m

    54. ! I/ a1 V0 E4 k- ^* c+ c- U
    55. Menu
      6 \' V# ^' U* ~  A
    56. 00:00:00.000                             : en:1- m- V% M- @1 v; j4 `7 \
    57. 00:14:21.486                             : en:2
      4 O+ Y4 c; e- t5 e3 D( ^$ h7 }
    58. 00:30:15.189                             : en:3  O) D& M: d0 ]
    59. 00:46:31.957                             : en:4
      9 R- G* G5 U; J" H; x' w
    60. 01:01:36.361                             : en:5/ }& \2 e0 V1 k! o6 J- Y6 _
    61. 01:16:04.562                             : en:6% g# f- {. b% T& b6 w
    62. 01:33:24.852                             : en:7% E* e5 m# l' n9 \
    复制代码
    ; G) m) ]" e; {  P- P+ Q( b  N

    : s  B$ L8 V6 @/ |( \; ?: {- E) m7 c; ?% V7 q9 f
    4 }- U: S; H" A! d; Y& a" y  j
    1 r( G7 ]# f- W! o+ P
    1$ a% Q$ U1 \0 B+ Z5 E8 g9 r

    ' T1 k! `& e9 ^0 D+ |0 L( k
    + A8 x8 ^8 \9 t; T8 _

    本帖子中包含更多资源

    您需要 登录 才可以下载或查看,没有帐号?立即注册

    x
    回复

    使用道具 举报

    您需要登录后才可以回帖 登录 | 立即注册

    本版积分规则

    QQ|广告友链合作联系QQ2510481767|小黑屋|威酷高清影视论坛

    GMT+8, 2017-1-23 14:23 , Processed in 0.156000 second(s), 40 queries , Gzip On.

    Powered by Vkugq!

    © 2010-2016 Vukgq Inc.

    快速回复 返回顶部 返回列表