威酷高清论坛

 找回密码
 立即注册

QQ登录

只需一步,快速开始

查看: 238|回复: 0

[喜剧] 全民战争 War.on.Everyone.2016.1080p.WEB-DL.DD5.1.H264-FGT 3.37GB

[复制链接]
  • TA的每日心情
    9
    2015-8-23 17:39
  • 签到天数: 124 天

    [LV.7]常住居民III

    发表于 2017-1-5 18:37:19 | 显示全部楼层 |阅读模式
    ◎译  名 全民战争
    ◎片  名 War on Everyone
    ◎年  代 2016
    ◎国  家 英国
    ◎类  别 喜剧
    ◎语  言 英语
    ◎上映日期 2016-10-07(英国)
    ◎IMDb评分  6.4/10 from 1,516 users
    ◎豆瓣评分 6.2/10 from 14 users
    ◎片  长 98分钟
    ◎导  演 约翰· 迈克尔·麦克道纳格 John Michael McDonagh
    ◎主  演 亚历山大·斯卡斯加德 Alexander Skarsgård
          泰莎·汤普森 Tessa Thompson
          迈克尔·佩纳 Michael Peña
          提奥·詹姆斯 Theo James
          卡赖伯·兰德里·琼斯 Caleb Landry Jones
          斯黛芬妮·西格曼 Stephanie Sigman
          保罗·雷瑟 Paul Reiser
          迪兰·科宁 Dylan Kenin
          理查德·比尔 Richard Beal
          Keith Jardine

    2 n8 z6 I3 `3 L6 q* y, P* R
    ◎简  介
    , S: X7 ]0 z* I4 I3 Z( A
      Two corrupt cops in New Mexico set out to blackmail and frame every criminal unfortunate enough to cross their path. Things take a sinister turn, however, when they try to intimidate someone who is more dangerous than they are. Or is he?

    1. ! C6 A: s! g- Y2 ^  r3 v

    2. 6 `% _/ {& Q" m# `
    3. Video
        V0 r) i5 ^: r% K8 [
    4. ID                                       : 1: N" t, \* A* N9 l+ y5 }* ]" w
    5. Format                                   : AVC6 f: L2 @4 k, {; S1 W/ \! W
    6. Format/Info                              : Advanced Video Codec- t) M5 b: G8 \8 E( k( S
    7. Format profile                           : High@L4
      - {* Q: W7 ]( H( _0 \
    8. Format settings, CABAC                   : Yes2 ]% W$ K7 I; i9 ^7 X
    9. Format settings, ReFrames                : 5 frames3 U# f: [+ ^# n3 N' H  {( Z
    10. Format settings, GOP                     : N=1
      ' Y% L8 z) q$ O! |
    11. Codec ID                                 : V_MPEG4/ISO/AVC
      ; I6 k+ w: p, B3 o0 Q( K
    12. Duration                                 : 1h 37mn. h' [- C8 \$ r" A8 }- _
    13. Bit rate                                 : 4 459 Kbps0 l, a2 Y- k+ \) {6 t
    14. Width                                    : 1 920 pixels4 o% C- y" F: L) {$ D; R4 O8 ]/ r
    15. Height                                   : 796 pixels' l; N+ Y1 z. r8 U& S
    16. Display aspect ratio                     : 2.40:1
      / Z! J9 S9 G, e8 c# y/ l
    17. Frame rate mode                          : Constant
      ' v1 V. A: l3 r$ H5 f; C- n
    18. Frame rate                               : 24.000 fps
      0 A4 q3 l% ?" ?2 B+ Y% p4 J: k
    19. Color space                              : YUV
      ( q; Y0 l2 x- G5 I; O5 B6 F' X
    20. Chroma subsampling                       : 4:2:0
      ) L' I/ B9 H$ e
    21. Bit depth                                : 8 bits) p; v/ |8 ~# s; |' _* C8 c
    22. Scan type                                : Progressive
      $ J* Y$ f% x7 G+ F/ \+ l0 c
    23. Bits/(Pixel*Frame)                       : 0.1224 ?/ u: H$ K" R( b. U
    24. Stream size                              : 3.04 GiB (90%)
      5 y' m2 S4 L1 M( D. f
    25. Title                                    : War.on.Everyone.2016.1080p.WEB-DL.DD5.1.H264-FGT) i, M6 X. b4 b, w0 m* P5 T) h) m* _. S* I
    26. Language                                 : English
      9 L/ P3 }: O8 ~' H& T  ~7 i
    27. Default                                  : Yes. k) U+ N; L) f/ b$ V
    28. Forced                                   : No
      - B/ @+ y$ L, Y* ]1 _1 O- f. e
    29. Color range                              : Limited1 z8 n# B) H/ {* j3 X& o2 }& `" R
    30. Color primaries                          : BT.709
      4 J# W! [) X- }9 p' @
    31. Transfer characteristics                 : BT.709
      - X3 M3 B% q  z8 [1 g5 y. V6 z  Q
    32. Matrix coefficients                      : BT.7094 A) {: u) w  j! ?& a
    33. & w% Q, i1 V- u$ Q7 u* h
    34. Audio4 k7 d2 P2 _- ~6 n
    35. ID                                       : 2
      0 B5 H. I' {1 e6 D
    36. Format                                   : AC-3( t: `- l8 J/ i
    37. Format/Info                              : Audio Coding 3
      7 z  f7 ?$ F0 p+ b: D+ r, F. C
    38. Mode extension                           : CM (complete main)
      . x/ ?) O7 z- s- _! x1 w9 i
    39. Format settings, Endianness              : Big
      6 N- B# w1 n, @- {( l  F
    40. Codec ID                                 : A_AC3
      : Z' G2 J, x* H6 U: h
    41. Duration                                 : 1h 37mn
      . Z$ U6 r& n8 |
    42. Bit rate mode                            : Constant4 w; ^6 _! d6 H$ z
    43. Bit rate                                 : 384 Kbps; B' q( `) @- K1 N6 I4 j: V* C( Q6 Q
    44. Channel(s)                               : 6 channels0 x8 |" {+ S4 r, B5 @* T
    45. Channel positions                        : Front: L C R, Side: L R, LFE
      1 T# p! ~& J8 U3 g6 i& H* P+ Q$ _
    46. Sampling rate                            : 48.0 KHz  q" o* c" s! ~  M9 U
    47. Frame rate                               : 31.250 fps (1536 spf)
      ' v* I0 \  @& y6 E+ E
    48. Compression mode                         : Lossy
      3 i! ~3 u) E! P/ i
    49. Stream size                              : 268 MiB (8%)
      % d( `1 a6 Y; ^9 y% j
    50. Title                                    : War.on.Everyone.2016.1080p.WEB-DL.DD5.1.H264-FGT3 P& K) S  |% [
    51. Language                                 : English+ b! c* Z$ X+ G! q4 |
    52. Default                                  : Yes
      7 r  x; f! F! q5 [, J/ b/ D5 Z
    53. Forced                                   : No: ^, G( _* o: x! t4 q
    54. 6 `+ h# K- O3 j1 t& C; }9 z' }
    55. Menu
      6 O+ H4 P! b* Z& S
    56. 00:00:00.000                             : en:1) K1 c5 \4 R  g) }# @' G' D7 O6 H! q
    57. 00:14:21.486                             : en:2
      . T. M' D$ D+ c! N' ?/ w" g
    58. 00:30:15.189                             : en:3
      4 u4 r7 x9 y' s- |
    59. 00:46:31.957                             : en:41 Z. M* g, p% a2 B1 I" P" [
    60. 01:01:36.361                             : en:5
      ) K  x) E1 w4 J  ^- o( z: R
    61. 01:16:04.562                             : en:69 J, d9 P0 V: M& B0 L
    62. 01:33:24.852                             : en:71 J8 R6 f1 z* s# I
    复制代码

    3 B" N2 W% o4 D! I9 ?) Z* Y: u/ K
    & _6 t& [8 U/ o1 ~

    : C) ~5 A! C1 c+ I% i

    # t$ ^( B+ r& Z: m; c
    6 C3 w. Z; R/ ]2 B+ Q- S( A. \1
    2 \: E# N5 b, n( K

    $ k- f5 W3 u& k- i' A# U
    7 P8 }1 o% r  L7 y5 N

    本帖子中包含更多资源

    您需要 登录 才可以下载或查看,没有帐号?立即注册

    x
    回复

    使用道具 举报

    您需要登录后才可以回帖 登录 | 立即注册

    本版积分规则

    QQ|广告友链合作联系QQ2510481767|小黑屋|威酷高清影视论坛

    GMT+8, 2017-6-24 18:22 , Processed in 0.043485 second(s), 20 queries , Gzip On, Redis On.

    Powered by Vkugq!

    © 2010-2016 Vukgq Inc.

    快速回复 返回顶部 返回列表