威酷高清论坛

 找回密码
 立即注册

QQ登录

只需一步,快速开始

查看: 141|回复: 0

[喜剧] 全民战争 War.on.Everyone.2016.1080p.WEB-DL.DD5.1.H264-FGT 3.37GB

[复制链接]
  • TA的每日心情
    今天挺高兴
    2015-8-23 17:39
  • 签到天数: 124 天

    [LV.7]常住居民III

    发表于 2017-1-5 18:37:19 | 显示全部楼层 |阅读模式
    ◎译  名 全民战争
    ◎片  名 War on Everyone
    ◎年  代 2016
    ◎国  家 英国
    ◎类  别 喜剧
    ◎语  言 英语
    ◎上映日期 2016-10-07(英国)
    ◎IMDb评分  6.4/10 from 1,516 users
    ◎豆瓣评分 6.2/10 from 14 users
    ◎片  长 98分钟
    ◎导  演 约翰· 迈克尔·麦克道纳格 John Michael McDonagh
    ◎主  演 亚历山大·斯卡斯加德 Alexander Skarsgård
          泰莎·汤普森 Tessa Thompson
          迈克尔·佩纳 Michael Peña
          提奥·詹姆斯 Theo James
          卡赖伯·兰德里·琼斯 Caleb Landry Jones
          斯黛芬妮·西格曼 Stephanie Sigman
          保罗·雷瑟 Paul Reiser
          迪兰·科宁 Dylan Kenin
          理查德·比尔 Richard Beal
          Keith Jardine
    ) l" X, {+ P2 ?3 q
    ◎简  介

    & G! S5 D/ N8 b! p
      Two corrupt cops in New Mexico set out to blackmail and frame every criminal unfortunate enough to cross their path. Things take a sinister turn, however, when they try to intimidate someone who is more dangerous than they are. Or is he?

    1. ) [. O, z0 o1 i  T7 U6 h4 f# H

    2. * F6 j0 h! \! h5 |9 ^
    3. Video
      * J* d2 y# f5 x7 i' C
    4. ID                                       : 1+ C, A. H7 L$ G
    5. Format                                   : AVC" t) o9 c4 q+ X- N: Z
    6. Format/Info                              : Advanced Video Codec& p' u" {. ^/ H# }# W4 Y1 H
    7. Format profile                           : [email protected]8 t7 K/ Q6 g  E8 X- M" y
    8. Format settings, CABAC                   : Yes
      ! A& L/ _* R* Y: r6 i1 _" \
    9. Format settings, ReFrames                : 5 frames5 r8 Y- ?1 Y4 c+ w& w
    10. Format settings, GOP                     : N=15 \- g6 }! d. N" v4 @6 N# x! v
    11. Codec ID                                 : V_MPEG4/ISO/AVC
      # R& v7 A' J' C1 }2 s9 q4 }, |
    12. Duration                                 : 1h 37mn
      $ {( g0 [  q/ \  n7 y
    13. Bit rate                                 : 4 459 Kbps
      % f7 G) S) q" A# T$ w- a
    14. Width                                    : 1 920 pixels
      & C7 {9 n4 _  f' x( q
    15. Height                                   : 796 pixels) Q7 x# X! l8 a  v0 M0 @
    16. Display aspect ratio                     : 2.40:1
      4 ^3 T* t5 T% z1 D  x
    17. Frame rate mode                          : Constant
      ' l% G+ ~  }0 {+ W8 M+ q
    18. Frame rate                               : 24.000 fps# W! h: f5 ~$ f) v4 S0 \# x: s) c8 o
    19. Color space                              : YUV9 z$ D' ]; n9 M' C" R  u# j; o8 C1 u
    20. Chroma subsampling                       : 4:2:0
      ( m- t& n' S6 _$ I% v" A0 y! |4 |
    21. Bit depth                                : 8 bits. J: C' D  D; {& V5 l& A0 w
    22. Scan type                                : Progressive1 N3 J7 R5 r2 f# J0 K. H) r
    23. Bits/(Pixel*Frame)                       : 0.122
      ) x) C+ G. M) B% u3 {
    24. Stream size                              : 3.04 GiB (90%)/ e) ?: x* h$ K- I. v
    25. Title                                    : War.on.Everyone.2016.1080p.WEB-DL.DD5.1.H264-FGT8 S* j, `5 o3 o9 X/ q3 E9 m
    26. Language                                 : English  O9 B" `9 I/ l( X7 q+ k
    27. Default                                  : Yes% z9 k5 T, n" c. T; w4 r
    28. Forced                                   : No
      , k2 ^$ E" ?1 d# s* @# P* N. X3 W5 l9 n
    29. Color range                              : Limited
      ! b" b" w: w! W6 C
    30. Color primaries                          : BT.709+ M+ r+ X; R$ O' v) O
    31. Transfer characteristics                 : BT.709
      / U/ g2 j# i5 x
    32. Matrix coefficients                      : BT.709
      ) h. e9 [  Y, J7 f

    33.   \+ g9 r2 H% a4 k
    34. Audio
      # [: V! r! `& s% b
    35. ID                                       : 2
      9 z9 T( {0 Z7 U7 n8 [
    36. Format                                   : AC-3
      ; ^" J, A5 d# C$ x
    37. Format/Info                              : Audio Coding 3, c% s. G: Q% w- N
    38. Mode extension                           : CM (complete main)
      4 a5 l0 H$ y* T! z
    39. Format settings, Endianness              : Big
      ( J( q' m1 H$ J! B2 i1 f% L6 d
    40. Codec ID                                 : A_AC3
      + v: b. U/ N: F# r9 R8 t, `  q2 `
    41. Duration                                 : 1h 37mn
      # B8 G/ g9 x1 }1 I5 Q
    42. Bit rate mode                            : Constant# I# D; w: Q$ D' u& T
    43. Bit rate                                 : 384 Kbps
      9 L! x( q" M% a8 X
    44. Channel(s)                               : 6 channels
      - N4 y! W- B* E2 l! U5 z! y/ c8 O1 _
    45. Channel positions                        : Front: L C R, Side: L R, LFE  Z- F) z3 U8 q. B" O4 {
    46. Sampling rate                            : 48.0 KHz
      ' W) j0 n; z( _# {+ S
    47. Frame rate                               : 31.250 fps (1536 spf)
      4 d2 `, j: t) [# ~/ F9 H
    48. Compression mode                         : Lossy
      / \$ w5 i) R! p& T7 @
    49. Stream size                              : 268 MiB (8%)  H* g; d. |8 ?; `
    50. Title                                    : War.on.Everyone.2016.1080p.WEB-DL.DD5.1.H264-FGT
      * M( l5 @' @  A- F# P
    51. Language                                 : English
      6 M" d- E; ]$ i; H
    52. Default                                  : Yes
      1 v0 i( \6 O8 ]7 t- V
    53. Forced                                   : No
      # @/ ]4 R7 v7 I/ ~# _+ Z5 W

    54. & w1 l0 ]6 Z* B( u- g9 @
    55. Menu, Z% e% e' G) C) W& @: q. w
    56. 00:00:00.000                             : en:1
      % P( G7 C' D9 U* a+ q% T
    57. 00:14:21.486                             : en:2
      ; s) I0 ~4 z  b/ Z2 K) t1 T  ^( l- y
    58. 00:30:15.189                             : en:3; {0 S1 o: t. Z) C
    59. 00:46:31.957                             : en:43 y. K8 K' e! s. Q* \
    60. 01:01:36.361                             : en:5. p* u6 N& n" V  a7 ~2 c$ ?, O9 v
    61. 01:16:04.562                             : en:6* [: u2 z. A0 C
    62. 01:33:24.852                             : en:79 U8 f5 f4 ?7 r
    复制代码

    % s0 P# `3 {& D0 X" Y  Z

    ) w$ Q  G  G, C% x  O0 ^% |% N1 J* d; u8 c2 r" {

    ) a. F! R# _3 W0 R4 R8 ~' N* X9 W$ g, Q. G
    1
    / n  B" {; @0 F! ~& B8 s' e

    2 j4 ]) h* w% X2 R
    , L8 F* Y7 C7 ^3 c

    本帖子中包含更多资源

    您需要 登录 才可以下载或查看,没有帐号?立即注册

    x
    回复

    使用道具 举报

    您需要登录后才可以回帖 登录 | 立即注册

    本版积分规则

    QQ|广告友链合作联系QQ2510481767|小黑屋|威酷高清影视论坛

    GMT+8, 2017-3-1 01:11 , Processed in 0.156000 second(s), 40 queries , Gzip On.

    Powered by Vkugq!

    © 2010-2016 Vukgq Inc.

    快速回复 返回顶部 返回列表