威酷高清论坛

 找回密码
 立即注册

QQ登录

只需一步,快速开始

查看: 205|回复: 0

[喜剧] 全民战争 War.on.Everyone.2016.1080p.WEB-DL.DD5.1.H264-FGT 3.37GB

[复制链接]
  • TA的每日心情
    9
    2015-8-23 17:39
  • 签到天数: 124 天

    [LV.7]常住居民III

    发表于 2017-1-5 18:37:19 | 显示全部楼层 |阅读模式
    ◎译  名 全民战争
    ◎片  名 War on Everyone
    ◎年  代 2016
    ◎国  家 英国
    ◎类  别 喜剧
    ◎语  言 英语
    ◎上映日期 2016-10-07(英国)
    ◎IMDb评分  6.4/10 from 1,516 users
    ◎豆瓣评分 6.2/10 from 14 users
    ◎片  长 98分钟
    ◎导  演 约翰· 迈克尔·麦克道纳格 John Michael McDonagh
    ◎主  演 亚历山大·斯卡斯加德 Alexander Skarsgård
          泰莎·汤普森 Tessa Thompson
          迈克尔·佩纳 Michael Peña
          提奥·詹姆斯 Theo James
          卡赖伯·兰德里·琼斯 Caleb Landry Jones
          斯黛芬妮·西格曼 Stephanie Sigman
          保罗·雷瑟 Paul Reiser
          迪兰·科宁 Dylan Kenin
          理查德·比尔 Richard Beal
          Keith Jardine
    . @! N$ t: V; U8 f! X
    ◎简  介

      I' @- ]. |' u, @5 ]9 g, ~' E
      Two corrupt cops in New Mexico set out to blackmail and frame every criminal unfortunate enough to cross their path. Things take a sinister turn, however, when they try to intimidate someone who is more dangerous than they are. Or is he?

    1. # y8 x* _- t' k1 J" a
    2. 3 z& V1 O4 O& x
    3. Video
      5 C: _, }1 G, t; Z1 H
    4. ID                                       : 1, L/ s$ f, e# @2 K2 a/ @) K
    5. Format                                   : AVC
      & a9 ]2 D& L  ?; J  ]
    6. Format/Info                              : Advanced Video Codec3 t6 d, O7 \8 y* _5 P0 `
    7. Format profile                           : High@L4
      . q$ m) Y# G* V6 `) E1 ?
    8. Format settings, CABAC                   : Yes6 K- h' B: p* V- q4 _. q( F
    9. Format settings, ReFrames                : 5 frames
      ' P1 f& q2 H  }! R7 t0 v0 ~/ D
    10. Format settings, GOP                     : N=1
      7 G% J( }( v* ?3 H1 \5 X9 N7 y) G+ r
    11. Codec ID                                 : V_MPEG4/ISO/AVC- ?# e# n! [4 d1 B
    12. Duration                                 : 1h 37mn
      / i) {! ?0 ]3 n$ f* ]
    13. Bit rate                                 : 4 459 Kbps; O  S  Q0 u0 F# v
    14. Width                                    : 1 920 pixels: D6 F- Y6 n  S5 R6 f" y
    15. Height                                   : 796 pixels. e  {5 F# ], p9 w+ P
    16. Display aspect ratio                     : 2.40:12 `) O. |  \* |  I  z+ q
    17. Frame rate mode                          : Constant! x  B+ z7 e" S7 Q5 G1 Y. p* g
    18. Frame rate                               : 24.000 fps; r2 \% T- G; `3 H' ~. h4 Y: ]
    19. Color space                              : YUV
      # T+ R' Q# _' Q( k
    20. Chroma subsampling                       : 4:2:0' ^6 I1 A0 L' o
    21. Bit depth                                : 8 bits' |  U6 f+ K- A# T* |1 G6 t2 `! F
    22. Scan type                                : Progressive- d% T3 r& A! E4 ?9 _/ i
    23. Bits/(Pixel*Frame)                       : 0.122
      " K) g; g- u5 f1 g, d! n
    24. Stream size                              : 3.04 GiB (90%)
      & V7 }- o8 T2 m
    25. Title                                    : War.on.Everyone.2016.1080p.WEB-DL.DD5.1.H264-FGT$ Y* X# H- l( M$ B( X: q
    26. Language                                 : English; l4 Y& f# E' J
    27. Default                                  : Yes3 Q2 `) t$ a; V# _" Z( u/ x$ g& B
    28. Forced                                   : No2 o4 V1 \- ~; {+ P  I: L; ^" Q
    29. Color range                              : Limited2 [6 j# N7 d% [5 b
    30. Color primaries                          : BT.7094 p. D3 l( \1 K! d. w/ A2 o
    31. Transfer characteristics                 : BT.709
      + A0 _* u$ C! ?, T6 W
    32. Matrix coefficients                      : BT.709
      4 W6 o  b0 p0 r/ j
    33. / T* _% V5 I% N, {# |$ m" y4 ?
    34. Audio
      . V! [( N+ {8 u
    35. ID                                       : 2: B) r0 j) b0 p) P
    36. Format                                   : AC-3! E& h! j7 _4 V4 J7 }( R7 B7 j
    37. Format/Info                              : Audio Coding 3
      & w" A  y7 w! }
    38. Mode extension                           : CM (complete main)
      . _. [( y+ g* q) d
    39. Format settings, Endianness              : Big! Q. K  L/ Q7 U) E* ^
    40. Codec ID                                 : A_AC3! E( a8 S/ ^+ \- a
    41. Duration                                 : 1h 37mn# b& C! I. U  }( s! z  Q$ n
    42. Bit rate mode                            : Constant7 }1 n/ ]* g% c: I7 d( i$ e
    43. Bit rate                                 : 384 Kbps, `, x: ?& F5 L" }! m
    44. Channel(s)                               : 6 channels
      " e- a* z, D' I0 }  J
    45. Channel positions                        : Front: L C R, Side: L R, LFE' ~& N0 ^0 |! W0 b& I- l5 a' ?
    46. Sampling rate                            : 48.0 KHz$ A! f8 b/ p8 v/ W4 L
    47. Frame rate                               : 31.250 fps (1536 spf)
      ; a, Z  \6 P5 o* q$ q7 n
    48. Compression mode                         : Lossy3 Y7 j# |0 K' Z* b+ L$ d" k+ {
    49. Stream size                              : 268 MiB (8%)
      " y3 d# m9 O; C3 }! d6 y+ u
    50. Title                                    : War.on.Everyone.2016.1080p.WEB-DL.DD5.1.H264-FGT
      & l2 v% P) a" k0 R  X
    51. Language                                 : English3 ~* o% j4 V4 x) P& z3 ]/ s! E* z
    52. Default                                  : Yes) c$ p3 M1 q( C
    53. Forced                                   : No8 Y5 l4 ], H4 a4 I1 y

    54. * y' L; B0 C% o9 x
    55. Menu
      # h" P6 H0 V1 c' z# ?6 i( r
    56. 00:00:00.000                             : en:1
      6 R, j3 Q" R) q* E
    57. 00:14:21.486                             : en:2/ C; U* a" c1 p6 O3 I
    58. 00:30:15.189                             : en:3% T# k  F4 S: V% O# U) q
    59. 00:46:31.957                             : en:4, Q/ p* w3 D# n1 @6 y5 L  g' U
    60. 01:01:36.361                             : en:5& t3 R/ O- x% ^2 _. D; x) ]
    61. 01:16:04.562                             : en:6( j# O5 D- \/ K. k
    62. 01:33:24.852                             : en:7
      6 w8 \+ W. v) t4 e
    复制代码

    ' n0 D9 E# Q& L
    3 b( n1 R  Z& _0 _4 F

    . d& P4 d& d- G' i' l" c9 l
    1 c4 J$ W* t3 h- o" d+ k2 z# G

    7 S- u: k" E! X" z+ @% |18 [: p- `0 {% W$ O

    2 c4 h" S& ?- @" g/ s; m* W8 u# q2 }0 F( p* A$ j

    本帖子中包含更多资源

    您需要 登录 才可以下载或查看,没有帐号?立即注册

    x
    回复

    使用道具 举报

    您需要登录后才可以回帖 登录 | 立即注册

    本版积分规则

    QQ|广告友链合作联系QQ2510481767|小黑屋|威酷高清影视论坛

    GMT+8, 2017-4-29 11:24 , Processed in 0.041921 second(s), 20 queries , Gzip On, Redis On.

    Powered by Vkugq!

    © 2010-2016 Vukgq Inc.

    快速回复 返回顶部 返回列表