威酷高清论坛

 找回密码
 立即注册

QQ登录

只需一步,快速开始

查看: 109|回复: 0

死亡占卜2:恶灵始源 Ouija.Origin.of.Evil.2016.720p.BluRay.x264.DTS-HDC 4.84GB

[复制链接]
  • TA的每日心情
    9
    2015-8-23 17:39
  • 签到天数: 124 天

    [LV.7]常住居民III

    发表于 2017-1-6 18:29:33 | 显示全部楼层 |阅读模式
    ◎译  名 死亡占卜2:恶灵始源/碟仙:恶灵始源(台)/死亡占卜2
    ◎片  名 Ouija: Origin of Evil
    ◎年  代 2016
    ◎国  家 美国
    ◎类  别 恐怖
    ◎语  言 英语
    ◎上映日期 2016-10-21(英国)
    ◎IMDb评分  6.2/10 from 14,983 users
    ◎豆瓣评分 6.0/10 from 1,333 users
    ◎片  长 99分钟
    ◎导  演 迈克·弗拉纳根 Mike Flanagan
    ◎主  演 安娜丽丝·巴索 Annalise Basso
          伊莉莎白·里瑟 Elizabeth Reaser
          露露·威尔逊 Lulu Wilson
          亨利·托马斯 Henry Thomas
          帕克·马克 Parker Mack
          道格·琼斯 Doug Jones
          切斯拉·冈萨雷兹 Chelsea Gonzalez
          林肯·梅尔彻 Lincoln Melcher
          尼可拉斯·肯南 Nicholas Keenan
          迈克尔·韦弗 Michael Weaver
          艾利·凯特斯 Ele Keats
          伊芙·戈登 Eve Gordon
          查德·赫弗芬格 Chad Heffelfinger
          妮娜·曼斯克 Nina Mansker
          约翰·普洛斯凯 John Prosky

    ◎简  介

      为了要将召唤来的恶灵送回阴间,这一家人必须去面对他们内心最恐惧的事物,古老的碟仙板将再次召唤出恶灵。

    1. Video
    2. ID                                       : 1
    3. Format                                   : AVC
    4. Format/Info                              : Advanced Video Codec
    5. Format profile                           : High@L4.1
    6. Format settings, CABAC                   : Yes
    7. Format settings, ReFrames                : 9 frames
    8. Codec ID                                 : V_MPEG4/ISO/AVC
    9. Duration                                 : 1h 38mn
    10. Bit rate                                 : 5 500 Kbps
    11. Width                                    : 1 280 pixels
    12. Height                                   : 692 pixels
    13. Display aspect ratio                     : 1.85:1
    14. Frame rate mode                          : Constant
    15. Frame rate                               : 23.976 (24000/1001) fps
    16. Color space                              : YUV
    17. Chroma subsampling                       : 4:2:0
    18. Bit depth                                : 8 bits
    19. Scan type                                : Progressive
    20. Bits/(Pixel*Frame)                       : 0.259
    21. Stream size                              : 3.70 GiB (76%)
    22. Writing library                          : x264 core 148 r2665kMod a01e339
    23. Encoding settings                        : cabac=1 / ref=9 / deblock=1:-3:-3 / analyse=0x3:0x133 / me=umh / subme=11 / psy=1 / fade_compensate=0.00 / psy_rd=1.05:0.00 / mixed_ref=1 / me_range=32 / chroma_me=1 / trellis=2 / 8x8dct=1 / cqm=0 / deadzone=21,11 / fast_pskip=0 / chroma_qp_offset=-2 / threads=22 / lookahead_threads=3 / sliced_threads=0 / nr=0 / decimate=0 / interlaced=0 / bluray_compat=0 / constrained_intra=0 / fgo=0 / bframes=8 / b_pyramid=2 / b_adapt=2 / b_bias=0 / direct=3 / weightb=1 / open_gop=0 / weightp=2 / keyint=240 / keyint_min=24 / scenecut=40 / intra_refresh=0 / rc=2pass / mbtree=0 / bitrate=5500 / ratetol=1.0 / qcomp=0.70 / qpmin=0 / qpmax=69 / qpstep=4 / cplxblur=20.0 / qblur=0.5 / ip_ratio=1.20 / pb_ratio=1.20 / aq=3:0.85
    24. Language                                 : English
    25. Default                                  : Yes
    26. Forced                                   : No

    27. Audio
    28. ID                                       : 2
    29. Format                                   : DTS
    30. Format/Info                              : Digital Theater Systems
    31. Mode                                     : 16
    32. Format settings, Endianness              : Big
    33. Codec ID                                 : A_DTS
    34. Duration                                 : 1h 38mn
    35. Bit rate mode                            : Constant
    36. Bit rate                                 : 1 509 Kbps
    37. Channel(s)                               : 6 channels
    38. Channel positions                        : Front: L C R, Side: L R, LFE
    39. Sampling rate                            : 48.0 KHz
    40. Frame rate                               : 93.750 fps (512 spf)
    41. Bit depth                                : 24 bits
    42. Compression mode                         : Lossy
    43. Stream size                              : 1.04 GiB (22%)
    44. Language                                 : English
    45. Default                                  : Yes
    46. Forced                                   : No

    47. Text
    48. ID                                       : 3
    49. Format                                   : UTF-8
    50. Codec ID                                 : S_TEXT/UTF8
    51. Codec ID/Info                            : UTF-8 Plain Text
    52. Language                                 : English
    53. Default                                  : Yes
    54. Forced                                   : No

    55. Menu
    56. 00:00:00.000                             : en:00:00:00.000
    57. 00:05:30.747                             : en:00:05:30.747
    58. 00:09:12.469                             : en:00:09:12.469
    59. 00:14:19.525                             : en:00:14:19.525
    60. 00:21:37.880                             : en:00:21:37.880
    61. 00:25:24.314                             : en:00:25:24.314
    62. 00:30:09.850                             : en:00:30:09.850
    63. 00:35:53.318                             : en:00:35:53.318
    64. 00:39:04.384                             : en:00:39:04.384
    65. 00:43:53.464                             : en:00:43:53.464
    66. 00:48:49.677                             : en:00:48:49.677
    67. 00:55:11.683                             : en:00:55:11.683
    68. 00:58:47.607                             : en:00:58:47.607
    69. 01:05:27.715                             : en:01:05:27.715
    70. 01:10:46.284                             : en:01:10:46.284
    71. 01:14:26.420                             : en:01:14:26.420
    72. 01:18:25.075                             : en:01:18:25.075
    73. 01:21:48.403                             : en:01:21:48.403
    74. 01:27:42.841                             : en:01:27:42.841
    75. 01:31:03.291                             : en:01:31:03.291
    复制代码











    本帖子中包含更多资源

    您需要 登录 才可以下载或查看,没有帐号?立即注册

    x
    回复

    使用道具 举报

    您需要登录后才可以回帖 登录 | 立即注册

    本版积分规则

    QQ|广告友链合作联系QQ2510481767|小黑屋|威酷高清影视论坛

    GMT+8, 2017-4-29 11:29 , Processed in 0.062946 second(s), 19 queries , Gzip On, Redis On.

    Powered by Vkugq!

    © 2010-2016 Vukgq Inc.

    快速回复 返回顶部 返回列表