威酷高清论坛

 找回密码
 立即注册

QQ登录

只需一步,快速开始

查看: 242|回复: 0

[Remux] 极速之巅 Collide.2016.1080p.BluRay.REMUX.AVC.DTS-HD.MA.5.1-FGT 31GB

[复制链接]
  • TA的每日心情
    9
    2015-8-23 17:39
  • 签到天数: 124 天

    [LV.7]常住居民III

    发表于 2017-1-9 17:52:24 | 显示全部楼层 |阅读模式
    ◎译  名 极速之巅
    ◎片  名 Autobahn
    ◎年  代 2016
    ◎国  家 英国/德国
    ◎类  别 动作/惊悚
    ◎语  言 英语/德语
    ◎上映日期 2016-07-28(德国)/2016-12-02(中国大陆)
    ◎IMDb评分  5.7/10 from 703 users
    ◎豆瓣评分 4.9/10 from 1,090 users
    ◎片  长 99分钟/88分钟(中国大陆)
    ◎导  演 伊兰·克里维 Eran Creevy
    ◎主  演 尼古拉斯·霍尔特 Nicholas Hoult
          费莉西蒂·琼斯 Felicity Jones
          安东尼·霍普金斯 Anthony Hopkins
          本·金斯利 Ben Kingsley
          马尔万·肯扎里 Marwan Kenzari
          克雷蒙斯·施伊克 Clemens Schick
          约阿希姆·科尔 Joachim Król
          Michael Epp
          克里斯蒂安·鲁贝克 Christian Rubeck
          Johnny Palmiero
          亚历山大·约凡诺维奇 Aleksandar Jovanovic
          Annina Nusko
          琳赛·伊丽莎白 Lindsey Elizabeth
          Svenja Kleinfeld

    ◎简  介

      美国小贼凯西(尼古拉斯·霍尔特 Nicholas Hoult 饰)在国内犯下不计其数的案件。为了活命,他逃到了德国,成为当地大毒枭格兰(本·金斯利 Ben Kingsley 饰)手下的毒贩,平静的生活下包裹着刀尖上舔血的惊险生活。正在此时,他的爱人朱丽叶特(菲丽希缇·琼斯 Felicity Jones 饰)被发现有严重的肾病且急需要做移植手术。平静的伪装被打破。为了支付女友昂贵的医疗费,凯西决定以生命为赌注做一单大的,却又恰巧将自己卷入以一个牵涉德国最大毒枭哈根(安东尼·霍普金斯 Anthony Hopkins 饰)的惊天复仇阴谋,此刻不仅仅是他自己,他女友的性命也成了整个阴谋中至关重要的一环。在德国无限速公路上凯西和杀人不眨眼的毒枭组织们展开了激烈的追逐……



    Video
    ID                                       : 1
    Format                                   : AVC
    Format/Info                              : Advanced Video Codec
    Format profile                           : High@L4.1
    Format settings, CABAC                   : Yes
    Format settings, ReFrames                : 4 frames
    Codec ID                                 : V_MPEG4/ISO/AVC
    Duration                                 : 1h 38mn
    Bit rate mode                            : Variable
    Maximum bit rate                         : 38.5 Mbps
    Width                                    : 1 920 pixels
    Height                                   : 1 080 pixels
    Display aspect ratio                     : 16:9
    Frame rate mode                          : Constant
    Frame rate                               : 23.976 (24000/1001) fps
    Color space                              : YUV
    Chroma subsampling                       : 4:2:0
    Bit depth                                : 8 bits
    Scan type                                : Progressive
    Title                                    : Collide.2016.1080p.BluRay.REMUX.AVC.DTS-HD.MA.5.1-FGT
    Language                                 : English
    Default                                  : No
    Forced                                   : No
    Color range                              : Limited
    Color primaries                          : BT.709
    Transfer characteristics                 : BT.709
    Matrix coefficients                      : BT.709

    Audio #1
    ID                                       : 2
    Format                                   : DTS
    Format/Info                              : Digital Theater Systems
    Format profile                           : MA / Core
    Mode                                     : 16
    Format settings, Endianness              : Big
    Codec ID                                 : A_DTS
    Duration                                 : 1h 38mn
    Bit rate mode                            : Variable / Constant
    Bit rate                                 : Unknown / 1 509 Kbps
    Channel(s)                               : 6 channels
    Channel positions                        : Front: L C R, Side: L R, LFE
    Sampling rate                            : 48.0 KHz
    Frame rate                               : 93.750 fps (512 spf)
    Bit depth                                : 16 bits
    Compression mode                         : Lossless / Lossy
    Title                                    : Collide.2016.1080p.BluRay.REMUX.AVC.DTS-HD.MA.5.1-FGT
    Language                                 : English
    Default                                  : Yes
    Forced                                   : No

    Audio #2
    ID                                       : 3
    Format                                   : DTS
    Format/Info                              : Digital Theater Systems
    Mode                                     : 16
    Format settings, Endianness              : Big
    Codec ID                                 : A_DTS
    Duration                                 : 1h 38mn
    Bit rate mode                            : Constant
    Bit rate                                 : 1 509 Kbps
    Channel(s)                               : 6 channels
    Channel positions                        : Front: L C R, Side: L R, LFE
    Sampling rate                            : 48.0 KHz
    Frame rate                               : 93.750 fps (512 spf)
    Bit depth                                : 16 bits
    Compression mode                         : Lossy
    Stream size                              : 1.04 GiB (3%)
    Title                                    : Collide.2016.1080p.BluRay.REMUX.AVC.DTS-HD.MA.5.1-FGT
    Language                                 : English
    Default                                  : No
    Forced                                   : No

    Audio #3
    ID                                       : 4
    Format                                   : DTS
    Format/Info                              : Digital Theater Systems
    Format profile                           : MA / Core
    Mode                                     : 16
    Format settings, Endianness              : Big
    Codec ID                                 : A_DTS
    Duration                                 : 1h 38mn
    Bit rate mode                            : Variable / Constant
    Bit rate                                 : Unknown / 1 509 Kbps
    Channel(s)                               : 6 channels
    Channel positions                        : Front: L C R, Side: L R, LFE
    Sampling rate                            : 48.0 KHz
    Frame rate                               : 93.750 fps (512 spf)
    Bit depth                                : 16 bits
    Compression mode                         : Lossless / Lossy
    Title                                    : Collide.2016.1080p.BluRay.REMUX.AVC.DTS-HD.MA.5.1-FGT
    Language                                 : Japanese
    Default                                  : No
    Forced                                   : No

    Audio #4
    ID                                       : 5
    Format                                   : DTS
    Format/Info                              : Digital Theater Systems
    Mode                                     : 16
    Format settings, Endianness              : Big
    Codec ID                                 : A_DTS
    Duration                                 : 1h 38mn
    Bit rate mode                            : Constant
    Bit rate                                 : 1 509 Kbps
    Channel(s)                               : 6 channels
    Channel positions                        : Front: L C R, Side: L R, LFE
    Sampling rate                            : 48.0 KHz
    Frame rate                               : 93.750 fps (512 spf)
    Bit depth                                : 16 bits
    Compression mode                         : Lossy
    Stream size                              : 1.04 GiB (3%)
    Title                                    : Collide.2016.1080p.BluRay.REMUX.AVC.DTS-HD.MA.5.1-FGT
    Language                                 : Japanese
    Default                                  : No
    Forced                                   : No

    Text #1
    ID                                       : 6
    Format                                   : PGS
    Muxing mode                              : zlib
    Codec ID                                 : S_HDMV/PGS
    Codec ID/Info                            : Picture based subtitle format used on BDs/HD-DVDs
    Title                                    : Japanese-PGS
    Language                                 : Japanese
    Default                                  : No
    Forced                                   : No

    Text #2
    ID                                       : 7
    Format                                   : PGS
    Muxing mode                              : zlib
    Codec ID                                 : S_HDMV/PGS
    Codec ID/Info                            : Picture based subtitle format used on BDs/HD-DVDs
    Title                                    : Japanese-FORCED-PGS
    Language                                 : Japanese
    Default                                  : No








    本帖子中包含更多资源

    您需要 登录 才可以下载或查看,没有帐号?立即注册

    x
    回复

    使用道具 举报

    您需要登录后才可以回帖 登录 | 立即注册

    本版积分规则

    QQ|广告友链合作联系QQ2510481767|小黑屋|威酷高清影视论坛

    GMT+8, 2017-6-24 18:15 , Processed in 0.040599 second(s), 19 queries , Gzip On, Redis On.

    Powered by Vkugq!

    © 2010-2016 Vukgq Inc.

    快速回复 返回顶部 返回列表