威酷高清论坛

 找回密码
 立即注册

QQ登录

只需一步,快速开始

查看: 52|回复: 0

[喜剧] 吸血鬼保姆 My.Babysitters.A.Vampire.2010.1080p.WEBRip.DD5.1.x264-TrollHD 4.2GB

[复制链接]
  • TA的每日心情
    今天挺高兴
    2015-8-23 17:39
  • 签到天数: 124 天

    [LV.7]常住居民III

    发表于 2017-1-11 14:53:47 | 显示全部楼层 |阅读模式
    ◎译  名 吸血鬼保姆
    ◎片  名 My Babysitter's a Vampire
    ◎年  代 2010
    ◎国  家 加拿大
    ◎语  言 英语
    ◎上映日期 2010
    ◎IMDb评分  6.3/10 from 2,360 users
    ◎豆瓣评分 4.4/10 from 356 users
    ◎片  长 85分钟
    ◎导  演 Bruce McDonald
    ◎主  演 Matthew Knight
          Atticus Dean
    ' b8 T7 D4 K- d; x( |6 M( e  ~
    ◎简  介
    ( {: {$ f( q2 s. j% v
      是一部吸血鬼题材的加拿大电视电影。 高中生Ethan因贪玩照顾不好妹妹而不被父母信任,于是便给他和妹妹找了一个保姆。阴差阳错的巧合,本应是Erica的保姆工作落到了Sarah身上。而发生在Sarah身上的种种奇怪迹象让Ethan和他的兄弟Benny追踪她至一个小巷子,于是发现了他们的保姆居然是一只吸血鬼。而更令他们惊奇的是,镇上的吸血鬼不止Sarah,并且随着他们的深入了解,一个惊天的大秘密正一步步解开...

    1. 6 A0 A3 ~8 k9 K( P

    2. 5 ]" J' R& [! q. A
    3. Video1 E2 k8 k/ @2 B* J
    4. ID                                       : 14 U) ^8 k& l+ e3 t% R
    5. Format                                   : AVC
      ' H* `/ O$ E" c* z
    6. Format/Info                              : Advanced Video Codec0 t3 K1 e+ S9 D( I1 N7 ~, W& M2 e8 }% J
    7. Format profile                           : [email protected]
      0 |+ Q1 K- M% J+ U) R
    8. Format settings, CABAC                   : Yes! ]3 W. a' p" |3 {$ D. ~& c4 E) ~
    9. Format settings, ReFrames                : 4 frames
      0 [! w8 e$ s8 p  E
    10. Codec ID                                 : V_MPEG4/ISO/AVC
      ' K5 G$ R6 Z& n6 A; I; u6 b
    11. Duration                                 : 1h 20mn! U5 y0 P9 x) l
    12. Bit rate mode                            : Variable" F4 I3 A9 o1 z! Z: A) I
    13. Bit rate                                 : 6 837 Kbps* {: r- s( C0 _, M% {! O
    14. Maximum bit rate                         : 15.0 Mbps
      - E: r: R$ ~$ D5 N. `' m/ U7 y  b
    15. Width                                    : 1 920 pixels
        O7 T& r1 D. V6 {6 c
    16. Height                                   : 1 080 pixels6 }# V' n( _8 o/ W0 h. P% ]
    17. Display aspect ratio                     : 16:9
      : D8 @3 s2 f" W" X) c
    18. Frame rate mode                          : Constant
      % z6 G$ p5 Y; J1 ], x5 C0 {- {
    19. Frame rate                               : 23.976 (24000/1001) fps, L, v8 V( a) `' W
    20. Color space                              : YUV- T2 V+ k5 E: N/ ~& R- \$ h
    21. Chroma subsampling                       : 4:2:0
      % }4 O; e  G9 P3 S9 {, l" E( B
    22. Bit depth                                : 8 bits
      * _0 s; |- r! Y- ?
    23. Scan type                                : Progressive. L6 Z9 o6 b' v! o3 Q" r/ _$ O
    24. Bits/(Pixel*Frame)                       : 0.138
      ; j* B( q0 T9 m! f7 H( V
    25. Stream size                              : 3.84 GiB (91%)- z0 L- V6 l; G, w' t. |# `9 p
    26. Title                                    : My Babysitter\'s a Vampire (2011)
      6 x/ }" }8 G( v/ t' W: E
    27. Writing library                          : x264 core 148 r2623 d5b23741 v4 J0 `- D7 t$ s- z( \7 F
    28. Encoding settings                        : cabac=1 / ref=4 / deblock=1:-1:-1 / analyse=0x3:0x133 / me=umh / subme=9 / psy=1 / psy_rd=1.00:0.15 / mixed_ref=1 / me_range=24 / chroma_me=1 / trellis=2 / 8x8dct=1 / cqm=0 / deadzone=21,11 / fast_pskip=1 / chroma_qp_offset=-3 / threads=34 / lookahead_threads=5 / sliced_threads=0 / nr=150 / decimate=1 / interlaced=0 / bluray_compat=0 / constrained_intra=0 / bframes=8 / b_pyramid=2 / b_adapt=2 / b_bias=0 / direct=3 / weightb=1 / open_gop=0 / weightp=2 / keyint=120 / keyint_min=61 / scenecut=0 / intra_refresh=0 / rc_lookahead=120 / rc=crf / mbtree=1 / crf=18.0 / qcomp=0.60 / qpmin=0 / qpmax=69 / qpstep=4 / vbv_maxrate=15000 / vbv_bufsize=31250 / crf_max=0.0 / nal_hrd=vbr / filler=0 / ip_ratio=1.40 / aq=3:1.00+ Q% c- K% y. A) a* q4 m, A" s
    29. Default                                  : Yes
      " S' y7 s& z( `+ M* e. w7 L% ~
    30. Forced                                   : No
      * N) u) a8 r4 a9 T, L
    31. Color range                              : Limited7 {" F4 h- u! t* Q- s
    32. Color primaries                          : BT.709; t9 |2 u, z8 B( b) p; U
    33. Transfer characteristics                 : BT.7094 P0 G% f0 ^/ m1 n
    34. Matrix coefficients                      : BT.709
        W3 [3 W* V2 }( Q% X  j% f2 y$ ]

    35. & d7 a: _2 D+ f( I. E6 e5 Y  S
    36. Audio
      # L" s+ h. c# W
    37. ID                                       : 2  g# j! i+ ^2 W8 T# w0 p" E
    38. Format                                   : E-AC-3- a0 j6 `$ ]* M! N
    39. Format/Info                              : Audio Coding 3
      ! w0 x! E0 S* |4 P, n
    40. Format settings, Endianness              : Big
      ) j% K" P6 G9 G$ y! n9 s$ A
    41. Codec ID                                 : A_EAC3
      * ~- m9 \& b, f' Q
    42. Duration                                 : 1h 20mn
      % T! l. Y  e. @# \6 m& v. J
    43. Bit rate mode                            : Constant" E4 ^. s( W- |: g3 c/ g/ O
    44. Bit rate                                 : 640 Kbps
      ' X) C5 N& u( I  }8 I! r' L$ s: H
    45. Channel(s)                               : 6 channels4 t+ v- a: M$ e- X6 T& v
    46. Channel positions                        : Front: L C R, Side: L R, LFE
        O/ E& ]/ }  h9 m2 _9 I, b6 e
    47. Sampling rate                            : 48.0 KHz
      , k$ L2 j5 ^) \1 L4 U# z4 `2 N
    48. Frame rate                               : 187.500 fps (256 spf)
      3 c' ?. ~) h$ z# k
    49. Compression mode                         : Lossy; I3 j9 B' U5 Z% J8 q
    50. Stream size                              : 368 MiB (9%)
      # P) ?: x, D7 x! `) t9 d; i
    51. Title                                    : English
      / [, ^: v) }8 l' M5 f0 {5 x3 `' `0 D
    52. Language                                 : English  @& I9 F5 l) B$ r% w7 c
    53. Default                                  : Yes
      $ s7 a1 I7 i6 L
    54. Forced                                   : No
      ) Y7 k( V. N$ T9 k

    55. ; Y# ?4 y  ?0 k# K0 n! n9 _
    56. Text' [4 s% }& L! p2 @
    57. ID                                       : 36 z/ E+ M3 b; ]# X
    58. Format                                   : UTF-8
      + b& v& ?) n2 d  r# A
    59. Codec ID                                 : S_TEXT/UTF81 p0 A) a7 E  E3 C
    60. Codec ID/Info                            : UTF-8 Plain Text% y  d: {! y4 N0 |# V8 i: a
    61. Duration                                 : 1h 20mn: e" e) {; ^+ r4 @
    62. Bit rate                                 : 79 bps6 s1 I. W1 m9 ~( i8 ?
    63. Count of elements                        : 1414# J/ z9 h8 ^1 p( v
    64. Stream size                              : 46.6 KiB (0%)
      % `  k7 o$ J/ p6 z* c% _6 B' h
    65. Title                                    : English
      6 w* r' L  b6 x9 P3 z3 j
    66. Language                                 : English
      * z9 E& e. c( N, l
    67. Default                                  : No) |) ~3 G/ k8 i- n# p4 @
    68. Forced                                   : No
    复制代码
    . V  L  e$ @6 `9 m! Y" ^

    ' B: |1 _. E, X- F8 K* U* X$ R: J
    ; ]/ g* }; Y2 N- t, m" q4 M5 n$ O9 s* n

    ) @& C- D! s6 y; p+ B8 q7 z5 _
    # d0 k0 |6 W( }, `

    & u4 l4 F* d' w5 _- R
    8 U3 p5 b( |9 q: C
    ' Y9 ?- X" m. \: n
    $ ?) f: g0 F1 c

    本帖子中包含更多资源

    您需要 登录 才可以下载或查看,没有帐号?立即注册

    x
    回复

    使用道具 举报

    您需要登录后才可以回帖 登录 | 立即注册

    本版积分规则

    QQ|广告友链合作联系QQ2510481767|小黑屋|威酷高清影视论坛

    GMT+8, 2017-1-23 14:28 , Processed in 0.171600 second(s), 40 queries , Gzip On.

    Powered by Vkugq!

    © 2010-2016 Vukgq Inc.

    快速回复 返回顶部 返回列表