威酷高清论坛

 找回密码
 立即注册

QQ登录

只需一步,快速开始

查看: 165|回复: 0

[喜剧] 吸血鬼保姆 My.Babysitters.A.Vampire.2010.1080p.WEBRip.DD5.1.x264-TrollHD 4.2GB

[复制链接]
  • TA的每日心情
    9
    2015-8-23 17:39
  • 签到天数: 124 天

    [LV.7]常住居民III

    发表于 2017-1-11 14:53:47 | 显示全部楼层 |阅读模式
    ◎译  名 吸血鬼保姆
    ◎片  名 My Babysitter's a Vampire
    ◎年  代 2010
    ◎国  家 加拿大
    ◎语  言 英语
    ◎上映日期 2010
    ◎IMDb评分  6.3/10 from 2,360 users
    ◎豆瓣评分 4.4/10 from 356 users
    ◎片  长 85分钟
    ◎导  演 Bruce McDonald
    ◎主  演 Matthew Knight
          Atticus Dean
    : T/ x/ |) d$ f4 M5 E: i! o! a
    ◎简  介
    ) O9 D# k4 b$ r  ^$ d) ]0 ~+ y" L
      是一部吸血鬼题材的加拿大电视电影。 高中生Ethan因贪玩照顾不好妹妹而不被父母信任,于是便给他和妹妹找了一个保姆。阴差阳错的巧合,本应是Erica的保姆工作落到了Sarah身上。而发生在Sarah身上的种种奇怪迹象让Ethan和他的兄弟Benny追踪她至一个小巷子,于是发现了他们的保姆居然是一只吸血鬼。而更令他们惊奇的是,镇上的吸血鬼不止Sarah,并且随着他们的深入了解,一个惊天的大秘密正一步步解开...

    1. / F0 w: `4 s4 h' i4 t, D
    2. 4 |/ d# z+ m8 Q) G; _2 M! \
    3. Video
      1 r. }# M9 ~) \8 s! E
    4. ID                                       : 17 K4 S- L& C/ Q3 v
    5. Format                                   : AVC
      / O2 ?7 F- i4 E0 c5 a/ c
    6. Format/Info                              : Advanced Video Codec
      : C8 A9 c5 ], ~$ N
    7. Format profile                           : High@L4
      . v  M8 ^+ N  L8 l" b: |
    8. Format settings, CABAC                   : Yes
      : n# Y/ {" V* ]8 r$ y
    9. Format settings, ReFrames                : 4 frames! r: L- M+ z- p  ]8 }0 `1 h
    10. Codec ID                                 : V_MPEG4/ISO/AVC# y7 f! P4 H8 g- V) ~3 b
    11. Duration                                 : 1h 20mn9 n- U2 ~- u! B
    12. Bit rate mode                            : Variable
      7 [- ?1 f4 e' n4 j( X- z; L. u% A3 ^
    13. Bit rate                                 : 6 837 Kbps2 N8 J( a+ y% n* m# @5 q; z
    14. Maximum bit rate                         : 15.0 Mbps7 H  Z; R5 u4 @% H/ i
    15. Width                                    : 1 920 pixels
      4 m1 o5 @1 h9 N/ ^- J& l9 ~
    16. Height                                   : 1 080 pixels
      * c8 [8 K9 J; `! K  T
    17. Display aspect ratio                     : 16:9' |) m5 B6 C" }) x, f8 K
    18. Frame rate mode                          : Constant9 o$ a7 J6 J' n% s5 [
    19. Frame rate                               : 23.976 (24000/1001) fps1 \; |8 [5 Q1 K4 T4 _
    20. Color space                              : YUV& q% U) i! }2 M. g# P/ J$ t+ L
    21. Chroma subsampling                       : 4:2:0
      ' P* F, U4 A( B, G
    22. Bit depth                                : 8 bits0 V% H" Z  ?8 t5 y* {2 J) F8 [
    23. Scan type                                : Progressive
      0 k) N: y6 h, H$ G3 N/ V8 y
    24. Bits/(Pixel*Frame)                       : 0.138
      9 m2 f* O' _- R" s
    25. Stream size                              : 3.84 GiB (91%)3 N, G. {6 E8 A, `8 t' z2 W* ~
    26. Title                                    : My Babysitter\'s a Vampire (2011)$ S0 n0 e$ T, ?2 t. K. A
    27. Writing library                          : x264 core 148 r2623 d5b2374
      9 j. w, }: I3 z2 w3 s
    28. Encoding settings                        : cabac=1 / ref=4 / deblock=1:-1:-1 / analyse=0x3:0x133 / me=umh / subme=9 / psy=1 / psy_rd=1.00:0.15 / mixed_ref=1 / me_range=24 / chroma_me=1 / trellis=2 / 8x8dct=1 / cqm=0 / deadzone=21,11 / fast_pskip=1 / chroma_qp_offset=-3 / threads=34 / lookahead_threads=5 / sliced_threads=0 / nr=150 / decimate=1 / interlaced=0 / bluray_compat=0 / constrained_intra=0 / bframes=8 / b_pyramid=2 / b_adapt=2 / b_bias=0 / direct=3 / weightb=1 / open_gop=0 / weightp=2 / keyint=120 / keyint_min=61 / scenecut=0 / intra_refresh=0 / rc_lookahead=120 / rc=crf / mbtree=1 / crf=18.0 / qcomp=0.60 / qpmin=0 / qpmax=69 / qpstep=4 / vbv_maxrate=15000 / vbv_bufsize=31250 / crf_max=0.0 / nal_hrd=vbr / filler=0 / ip_ratio=1.40 / aq=3:1.00; ?* w. e0 M9 g+ S0 R1 b
    29. Default                                  : Yes) u5 J; Y6 a, ]; z0 m6 t1 C
    30. Forced                                   : No' x' p8 V  d, _+ q5 v3 F
    31. Color range                              : Limited
      * }8 t9 G" F9 o5 Y. R, n
    32. Color primaries                          : BT.7099 E$ i5 O/ h% \) M7 ]# h
    33. Transfer characteristics                 : BT.709
      9 I" g0 f0 y, O4 y
    34. Matrix coefficients                      : BT.709, C! b& v; P/ {3 j2 N! K1 i( d2 v
    35. % y+ _/ A; n" w6 s* b( ]
    36. Audio, J7 r3 r4 V8 r: F: o' G& M+ M8 L
    37. ID                                       : 2
      " H" s' V9 V( q( z# |0 w" i
    38. Format                                   : E-AC-31 L& o2 t1 ]- e' X( x: O3 i& c
    39. Format/Info                              : Audio Coding 3
      7 l4 R0 B: G+ h2 V
    40. Format settings, Endianness              : Big
      : y1 }" t4 n5 C+ i: M9 i
    41. Codec ID                                 : A_EAC3
        P9 T8 n0 M& B+ U0 ~" c  }4 q
    42. Duration                                 : 1h 20mn
      ) _/ s! j0 u% c
    43. Bit rate mode                            : Constant$ P9 v6 ]! n% E# j& k
    44. Bit rate                                 : 640 Kbps
      : d: T" l+ W- ]7 P: b
    45. Channel(s)                               : 6 channels
      7 ^! H' v# g% T# |' \
    46. Channel positions                        : Front: L C R, Side: L R, LFE
        K$ g; O2 M- R1 K0 Z- Z7 I0 J% r
    47. Sampling rate                            : 48.0 KHz" q+ v2 c: G" b* V0 T
    48. Frame rate                               : 187.500 fps (256 spf)' Q4 }* v9 {: T. w# A( N1 S4 A
    49. Compression mode                         : Lossy1 R  C8 b/ o) m% _
    50. Stream size                              : 368 MiB (9%)
      , k' e. V7 V% d* O" s
    51. Title                                    : English
      ( m0 g3 s7 k9 e$ x* [  F
    52. Language                                 : English
      ! N8 `: S8 @% I2 C& \8 V
    53. Default                                  : Yes
      9 H. I, K) F) n
    54. Forced                                   : No# i  t7 o8 A; P! O( x

    55. 6 V! U3 b% Z5 w4 S/ s
    56. Text' u. z1 R$ x% _6 d# a7 N3 q& l* T
    57. ID                                       : 3
      2 Z9 S4 \- m- F# e4 `( ]$ s
    58. Format                                   : UTF-8
      3 }0 C/ ?, j0 V8 c+ U+ j
    59. Codec ID                                 : S_TEXT/UTF8
      ; m  F+ g( \, u, n; j
    60. Codec ID/Info                            : UTF-8 Plain Text
      # a, X0 A8 B( i" O$ ?* B
    61. Duration                                 : 1h 20mn# W  X. Y3 Z2 h5 L+ z4 o
    62. Bit rate                                 : 79 bps
      8 p* ]7 s' v: h
    63. Count of elements                        : 14140 n( X" H7 o5 J9 S
    64. Stream size                              : 46.6 KiB (0%)
      4 |2 w4 b2 d' W+ u
    65. Title                                    : English: N# N' ~" T9 D. A! }
    66. Language                                 : English
      + U- n& T6 K# h- G
    67. Default                                  : No+ E2 h- A0 |# n0 F( L5 G2 Q
    68. Forced                                   : No
    复制代码
    7 Y3 h9 f8 a+ ~# v5 D
    / D/ N9 w& N' n5 d- D. B! O, X- ^

    + i( i4 m! J- k. S. B# L; S, j2 ?7 v! t! d3 M& L( i% W" Y

    6 c, n. e' n2 c+ z$ y3 l3 j4 N9 }

    0 x: n0 W% ^: u7 S$ o* a) t$ d
    9 S" f* n0 Q+ {4 q, h/ H% O/ {3 O! n

    本帖子中包含更多资源

    您需要 登录 才可以下载或查看,没有帐号?立即注册

    x
    回复

    使用道具 举报

    您需要登录后才可以回帖 登录 | 立即注册

    本版积分规则

    QQ|广告友链合作联系QQ2510481767|小黑屋|威酷高清影视论坛

    GMT+8, 2017-6-24 18:19 , Processed in 0.116493 second(s), 20 queries , Gzip On, Redis On.

    Powered by Vkugq!

    © 2010-2016 Vukgq Inc.

    快速回复 返回顶部 返回列表