威酷高清论坛

 找回密码
 立即注册

QQ登录

只需一步,快速开始

查看: 91|回复: 0

[喜剧] 吸血鬼保姆 My.Babysitters.A.Vampire.2010.1080p.WEBRip.DD5.1.x264-TrollHD 4.2GB

[复制链接]
  • TA的每日心情
    今天挺高兴
    2015-8-23 17:39
  • 签到天数: 124 天

    [LV.7]常住居民III

    发表于 2017-1-11 14:53:47 | 显示全部楼层 |阅读模式
    ◎译  名 吸血鬼保姆
    ◎片  名 My Babysitter's a Vampire
    ◎年  代 2010
    ◎国  家 加拿大
    ◎语  言 英语
    ◎上映日期 2010
    ◎IMDb评分  6.3/10 from 2,360 users
    ◎豆瓣评分 4.4/10 from 356 users
    ◎片  长 85分钟
    ◎导  演 Bruce McDonald
    ◎主  演 Matthew Knight
          Atticus Dean

    9 F6 k' _) i7 P% C
    ◎简  介

    ' t3 ^; f9 Q# K/ ~
      是一部吸血鬼题材的加拿大电视电影。 高中生Ethan因贪玩照顾不好妹妹而不被父母信任,于是便给他和妹妹找了一个保姆。阴差阳错的巧合,本应是Erica的保姆工作落到了Sarah身上。而发生在Sarah身上的种种奇怪迹象让Ethan和他的兄弟Benny追踪她至一个小巷子,于是发现了他们的保姆居然是一只吸血鬼。而更令他们惊奇的是,镇上的吸血鬼不止Sarah,并且随着他们的深入了解,一个惊天的大秘密正一步步解开...

    1. 1 C' [& d' v8 E2 @0 K
    2. 1 d, U4 H0 G& g0 v0 Q
    3. Video
      " q9 b. z, s' Q$ C9 f
    4. ID                                       : 1
      # X5 B, e2 d* h0 [
    5. Format                                   : AVC
      / {; _, y3 f+ r
    6. Format/Info                              : Advanced Video Codec" X5 H2 E) E! r7 P
    7. Format profile                           : [email protected]6 s2 R6 [8 I& H9 t+ h7 E
    8. Format settings, CABAC                   : Yes
      , R- p' w8 b1 u+ T
    9. Format settings, ReFrames                : 4 frames
      , l6 Z# p  w( y( h! t
    10. Codec ID                                 : V_MPEG4/ISO/AVC
      0 c/ N, G+ ~0 n1 G
    11. Duration                                 : 1h 20mn
      ; D: _) S9 C* I- ?
    12. Bit rate mode                            : Variable
      8 s2 Q+ l6 T! g4 e, p6 R$ P
    13. Bit rate                                 : 6 837 Kbps, l& m/ K9 e& [+ q
    14. Maximum bit rate                         : 15.0 Mbps; u7 p, ]" O6 _5 K6 a5 r- I
    15. Width                                    : 1 920 pixels- Z9 n# G$ K2 a/ K$ r' x( O
    16. Height                                   : 1 080 pixels
      " n% Z! r" J: E5 J5 Z# X
    17. Display aspect ratio                     : 16:9" T+ f  P! V  w: G5 ?
    18. Frame rate mode                          : Constant
      5 R! o' r# F+ O, H6 t1 O3 a
    19. Frame rate                               : 23.976 (24000/1001) fps
      ' w% Q, c4 I+ F- |* k9 ^* G5 T/ x% ?
    20. Color space                              : YUV5 R! M- p0 r6 ]$ q5 ?0 v
    21. Chroma subsampling                       : 4:2:0
      2 V& \: u7 |+ G2 x4 E/ L
    22. Bit depth                                : 8 bits
      , d: U3 h2 }  t$ e; j5 s+ j5 M/ U5 m% E
    23. Scan type                                : Progressive+ T+ Z7 @7 n, k3 d
    24. Bits/(Pixel*Frame)                       : 0.138( X9 B& `+ T% j- p* d3 E9 E
    25. Stream size                              : 3.84 GiB (91%)3 X3 _% |' b( E& S6 `
    26. Title                                    : My Babysitter\'s a Vampire (2011)
      $ b& N! }9 t  G
    27. Writing library                          : x264 core 148 r2623 d5b2374* T  V3 I" X# Q$ z8 y* V
    28. Encoding settings                        : cabac=1 / ref=4 / deblock=1:-1:-1 / analyse=0x3:0x133 / me=umh / subme=9 / psy=1 / psy_rd=1.00:0.15 / mixed_ref=1 / me_range=24 / chroma_me=1 / trellis=2 / 8x8dct=1 / cqm=0 / deadzone=21,11 / fast_pskip=1 / chroma_qp_offset=-3 / threads=34 / lookahead_threads=5 / sliced_threads=0 / nr=150 / decimate=1 / interlaced=0 / bluray_compat=0 / constrained_intra=0 / bframes=8 / b_pyramid=2 / b_adapt=2 / b_bias=0 / direct=3 / weightb=1 / open_gop=0 / weightp=2 / keyint=120 / keyint_min=61 / scenecut=0 / intra_refresh=0 / rc_lookahead=120 / rc=crf / mbtree=1 / crf=18.0 / qcomp=0.60 / qpmin=0 / qpmax=69 / qpstep=4 / vbv_maxrate=15000 / vbv_bufsize=31250 / crf_max=0.0 / nal_hrd=vbr / filler=0 / ip_ratio=1.40 / aq=3:1.00
      3 K( P8 k, g! {' C7 m( U' q
    29. Default                                  : Yes
      8 I# w: J9 X$ s, j) }
    30. Forced                                   : No: ~' p4 u1 V7 R( ?$ f/ U
    31. Color range                              : Limited
      7 L  a- a* i1 f3 |) ^- i
    32. Color primaries                          : BT.709
      - I# g$ }5 F1 N- \$ x1 N; K
    33. Transfer characteristics                 : BT.709
      & D$ N9 R5 h4 @" ^/ L
    34. Matrix coefficients                      : BT.709$ [" N# J3 r+ {, m

    35. ! C. Y$ B; e6 ^- [% q- _
    36. Audio/ _: B( k- ]3 k( p3 J( J
    37. ID                                       : 2
      % B" [, g2 g; V6 ^- m% E; X2 K
    38. Format                                   : E-AC-36 g% b7 M: I) Q. T  x
    39. Format/Info                              : Audio Coding 3
      % F7 y. E% s: y
    40. Format settings, Endianness              : Big& m  u! {# H+ s8 g7 E# W/ B! ]
    41. Codec ID                                 : A_EAC3
      ; i# S6 O4 B/ O! }; N; ?
    42. Duration                                 : 1h 20mn
      & ]8 q' V2 d. j0 @
    43. Bit rate mode                            : Constant* \5 r* z0 `9 {& Q$ {
    44. Bit rate                                 : 640 Kbps
      + K1 L& l( I/ k6 }/ o% k6 I
    45. Channel(s)                               : 6 channels+ x( k& D" V0 U' u
    46. Channel positions                        : Front: L C R, Side: L R, LFE
      ! e8 s! v5 v& d3 f7 C6 I& i
    47. Sampling rate                            : 48.0 KHz
      , s: w4 Z* |: m, l
    48. Frame rate                               : 187.500 fps (256 spf)* Q/ t6 q/ i3 ]# E$ q; E
    49. Compression mode                         : Lossy
      3 Q/ G. O& I( W$ {2 H2 q
    50. Stream size                              : 368 MiB (9%)! Y* \% C: @1 x! F: Y, p
    51. Title                                    : English, R$ T* T0 d6 }  K# z& T
    52. Language                                 : English( R6 q9 a- ?2 R' O7 }$ g: L
    53. Default                                  : Yes
      ; Y9 J( ^5 Q$ P! k( U
    54. Forced                                   : No2 p: E4 t+ @3 h& C" p; s

    55. 5 t, {  B2 V6 s, \; N
    56. Text, }  m8 T% z1 h
    57. ID                                       : 3
      & w, t0 O4 T! c# A0 l% K
    58. Format                                   : UTF-8
      1 l0 R% Q; n- p
    59. Codec ID                                 : S_TEXT/UTF8. f, ^7 T7 Y% j$ A. q# l
    60. Codec ID/Info                            : UTF-8 Plain Text$ E! z2 q9 }8 q, v+ Z" g  y; U) ~
    61. Duration                                 : 1h 20mn
        |% J7 b' P1 z% \. C
    62. Bit rate                                 : 79 bps
      % [/ r. _0 }8 K2 |6 O' [5 x$ f
    63. Count of elements                        : 14142 E  u8 g0 s. |
    64. Stream size                              : 46.6 KiB (0%)% b4 o7 T4 Q# n
    65. Title                                    : English  Q  N3 |% G; w# y7 v$ K
    66. Language                                 : English
      ) [& @4 ^3 x1 t" y! z4 u* m
    67. Default                                  : No& r: G0 i( D: O! q
    68. Forced                                   : No
    复制代码

    7 \1 w4 {( T2 q( m% q
    , H% q0 P$ w9 ]1 g) U$ r- ^# q

    - k( d3 C. h) ~3 K+ p
    $ K" A0 h, P. N- h6 S3 [) S' h: h

    % w2 B+ q/ I0 B3 D  X, f. s* w, g$ X% {* e& h

    / j! x" b/ G5 G( s
    . W3 C1 _9 P  |3 ]2 R3 n: b" d' d& R( A- [+ ]

    本帖子中包含更多资源

    您需要 登录 才可以下载或查看,没有帐号?立即注册

    x
    回复

    使用道具 举报

    您需要登录后才可以回帖 登录 | 立即注册

    本版积分规则

    QQ|广告友链合作联系QQ2510481767|小黑屋|威酷高清影视论坛

    GMT+8, 2017-3-1 01:11 , Processed in 0.171600 second(s), 40 queries , Gzip On.

    Powered by Vkugq!

    © 2010-2016 Vukgq Inc.

    快速回复 返回顶部 返回列表