威酷高清论坛

 找回密码
 立即注册

QQ登录

只需一步,快速开始

查看: 139|回复: 0

[喜剧] 吸血鬼保姆 My.Babysitters.A.Vampire.2010.1080p.WEBRip.DD5.1.x264-TrollHD 4.2GB

[复制链接]
  • TA的每日心情
    9
    2015-8-23 17:39
  • 签到天数: 124 天

    [LV.7]常住居民III

    发表于 2017-1-11 14:53:47 | 显示全部楼层 |阅读模式
    ◎译  名 吸血鬼保姆
    ◎片  名 My Babysitter's a Vampire
    ◎年  代 2010
    ◎国  家 加拿大
    ◎语  言 英语
    ◎上映日期 2010
    ◎IMDb评分  6.3/10 from 2,360 users
    ◎豆瓣评分 4.4/10 from 356 users
    ◎片  长 85分钟
    ◎导  演 Bruce McDonald
    ◎主  演 Matthew Knight
          Atticus Dean

    ) y6 }0 Q; C* l# P. ~/ P( _
    ◎简  介

    " ~/ V: w4 S# k4 d
      是一部吸血鬼题材的加拿大电视电影。 高中生Ethan因贪玩照顾不好妹妹而不被父母信任,于是便给他和妹妹找了一个保姆。阴差阳错的巧合,本应是Erica的保姆工作落到了Sarah身上。而发生在Sarah身上的种种奇怪迹象让Ethan和他的兄弟Benny追踪她至一个小巷子,于是发现了他们的保姆居然是一只吸血鬼。而更令他们惊奇的是,镇上的吸血鬼不止Sarah,并且随着他们的深入了解,一个惊天的大秘密正一步步解开...
    1. " x9 K  V8 w  J1 k' b

    2. 5 N+ Q) @- y/ m# O# @
    3. Video
      7 U3 t8 L. d. ]6 U6 e2 m% V+ X
    4. ID                                       : 1
      - \- k* z2 N) E. {
    5. Format                                   : AVC4 @3 ~. k" _- ]  S9 R* R3 }
    6. Format/Info                              : Advanced Video Codec
      ' A6 v0 k: ~) `4 h9 [2 E: Q
    7. Format profile                           : High@L4
      6 Q6 K- [& g5 ?2 M
    8. Format settings, CABAC                   : Yes
      9 j- `8 h) b2 P: x- B: ?! Y
    9. Format settings, ReFrames                : 4 frames
      ' g) v3 g6 c1 F! F
    10. Codec ID                                 : V_MPEG4/ISO/AVC% p0 G' x5 A" v, l6 |0 L* N" v
    11. Duration                                 : 1h 20mn
      ; z, E( ]1 z' f6 V2 Q$ e1 t) M: h
    12. Bit rate mode                            : Variable
      ! ], f4 z$ f7 P0 w" H% L; H* X
    13. Bit rate                                 : 6 837 Kbps
      ; T* u8 \5 h9 q
    14. Maximum bit rate                         : 15.0 Mbps( T1 C! y' d. W& s* k
    15. Width                                    : 1 920 pixels! G5 a: z! N$ x; t, Y( O) k
    16. Height                                   : 1 080 pixels
      5 M( A9 N: V7 I
    17. Display aspect ratio                     : 16:9
      % v# t/ t$ }5 m% ^' f$ M0 L
    18. Frame rate mode                          : Constant
      - X! G1 i# s" i/ i6 }9 @7 E0 ]
    19. Frame rate                               : 23.976 (24000/1001) fps" U, g, {6 V5 N* A
    20. Color space                              : YUV  o. J7 g9 p7 Q1 t6 L
    21. Chroma subsampling                       : 4:2:0
      2 `& c' D1 h  N7 l
    22. Bit depth                                : 8 bits
      $ T2 S1 @% }7 x; T
    23. Scan type                                : Progressive3 R' |3 d1 {$ |$ i8 Y
    24. Bits/(Pixel*Frame)                       : 0.138! n! {) \( W% Q$ W
    25. Stream size                              : 3.84 GiB (91%)# i- D5 C; p* o  D* v7 b
    26. Title                                    : My Babysitter\'s a Vampire (2011)
      + J+ l# H  k! o" B
    27. Writing library                          : x264 core 148 r2623 d5b2374
      ( n0 J, N$ r) g  W
    28. Encoding settings                        : cabac=1 / ref=4 / deblock=1:-1:-1 / analyse=0x3:0x133 / me=umh / subme=9 / psy=1 / psy_rd=1.00:0.15 / mixed_ref=1 / me_range=24 / chroma_me=1 / trellis=2 / 8x8dct=1 / cqm=0 / deadzone=21,11 / fast_pskip=1 / chroma_qp_offset=-3 / threads=34 / lookahead_threads=5 / sliced_threads=0 / nr=150 / decimate=1 / interlaced=0 / bluray_compat=0 / constrained_intra=0 / bframes=8 / b_pyramid=2 / b_adapt=2 / b_bias=0 / direct=3 / weightb=1 / open_gop=0 / weightp=2 / keyint=120 / keyint_min=61 / scenecut=0 / intra_refresh=0 / rc_lookahead=120 / rc=crf / mbtree=1 / crf=18.0 / qcomp=0.60 / qpmin=0 / qpmax=69 / qpstep=4 / vbv_maxrate=15000 / vbv_bufsize=31250 / crf_max=0.0 / nal_hrd=vbr / filler=0 / ip_ratio=1.40 / aq=3:1.00' `) Z# o+ C4 E+ \5 H
    29. Default                                  : Yes- l6 i6 t$ R) e5 B
    30. Forced                                   : No
      2 P" _  }- X* K" v2 w
    31. Color range                              : Limited( ~* n/ g, s- r; B+ j! \- M
    32. Color primaries                          : BT.7097 N' N( g# Z- p. G7 g. V3 L' f8 U
    33. Transfer characteristics                 : BT.709
      6 \) N2 W( g9 U$ i; i
    34. Matrix coefficients                      : BT.709
      # @" B* o! b7 G+ y) I0 e% W

    35. 9 b) K6 i# e0 o: [1 N
    36. Audio) S7 y- T% Y" H9 d% s8 ~+ `' v
    37. ID                                       : 2' c+ S' |' u' ^- j( `! b" w1 B2 a
    38. Format                                   : E-AC-3
      + j. ^% N- |" w' e- @
    39. Format/Info                              : Audio Coding 3' V( {' Q* N5 i2 V6 @) I
    40. Format settings, Endianness              : Big& |+ B, t  S1 u- g9 u0 B2 v+ Z
    41. Codec ID                                 : A_EAC3& E; c) U& t; b1 T# G4 E
    42. Duration                                 : 1h 20mn
      + y1 u# [1 Z9 e8 h! B
    43. Bit rate mode                            : Constant% @7 t9 M$ q. m6 r7 Y
    44. Bit rate                                 : 640 Kbps
      . R2 c6 s. E/ }9 }& X, q% _
    45. Channel(s)                               : 6 channels
      , _  ]0 Y# I0 @  r. h8 j7 @4 N- {. Y
    46. Channel positions                        : Front: L C R, Side: L R, LFE5 A/ }$ D$ u. y8 h: n
    47. Sampling rate                            : 48.0 KHz
      $ e' w, @% q1 h
    48. Frame rate                               : 187.500 fps (256 spf)
      2 E: A# _; y9 k, d- S7 M
    49. Compression mode                         : Lossy
      * m( T& u) V+ Q" g# I! N
    50. Stream size                              : 368 MiB (9%)& S" M3 B0 X8 p* T1 M. W, M
    51. Title                                    : English
      + x% D5 u* k- q- Q+ w" }* Y
    52. Language                                 : English6 W! r9 y( v- ^) D- `5 O5 Y0 ]3 s
    53. Default                                  : Yes% d5 F7 T2 r' A5 @
    54. Forced                                   : No
      7 i% |: Z8 N: o0 r8 h
    55. / i; |3 P# z  {# ^( I; b1 R
    56. Text: O; a2 G% ^1 I1 p2 G6 k; o" C
    57. ID                                       : 3
      # B& x4 O4 ?  T' l8 ^
    58. Format                                   : UTF-8. @5 Q% }1 |: d7 c- n
    59. Codec ID                                 : S_TEXT/UTF84 i! j- P! U& u# s
    60. Codec ID/Info                            : UTF-8 Plain Text
      . |7 C3 ?9 V# P5 o5 Z6 a. u
    61. Duration                                 : 1h 20mn) a1 l( P% t4 W) _5 C. p0 N
    62. Bit rate                                 : 79 bps
      5 L0 v. S- C( a/ S3 v9 e- C
    63. Count of elements                        : 1414
      : I3 X8 ]4 `8 S) \# L+ v5 c
    64. Stream size                              : 46.6 KiB (0%)
      6 U2 K; i6 ]7 [+ Y
    65. Title                                    : English, s7 E1 r0 r8 c& l' C4 q* _' G
    66. Language                                 : English
      5 ~+ c9 z$ `$ ]' h0 j
    67. Default                                  : No
      ( a$ g+ ?, ~5 E, M' Z
    68. Forced                                   : No
    复制代码
    6 w. @0 `- G( D% |. ^8 }  z% Q
    ! x  s+ A6 a: ?  h+ z; t& `$ L; l3 R" O6 ]

    2 n0 ?' ]7 }* |3 [7 f" N( F( [; |/ c" Z+ F* C3 |* \

    ; I" o+ e* k3 |* w6 H+ t
    , |3 }: j* q9 ~  R2 D3 n; _) P7 f0 g. r2 K2 \5 ^
    7 d1 h- R( {( i8 c0 h* G2 g

    " C  p$ b' D. X, p; Z

    本帖子中包含更多资源

    您需要 登录 才可以下载或查看,没有帐号?立即注册

    x
    回复

    使用道具 举报

    您需要登录后才可以回帖 登录 | 立即注册

    本版积分规则

    QQ|广告友链合作联系QQ2510481767|小黑屋|威酷高清影视论坛

    GMT+8, 2017-4-29 11:29 , Processed in 0.048779 second(s), 20 queries , Gzip On, Redis On.

    Powered by Vkugq!

    © 2010-2016 Vukgq Inc.

    快速回复 返回顶部 返回列表